<?xml version="1.0" standalone="no"?>
<!DOCTYPE svg PUBLIC "-//W3C//DTD SVG 1.1//EN" "http://www.w3.org/Graphics/SVG/1.1/DTD/svg11.dtd" >
<svg xmlns="http://www.w3.org/2000/svg">
<metadata>
<json>
{
	"fontFamily": "Vtiger",
	"majorVersion": 1,
	"minorVersion": 0,
	"version": "Version 1.0",
	"fontId": "Vtiger",
	"psName": "Vtiger",
	"subFamily": "Regular",
	"fullName": "Vtiger",
	"description": "Font generated by IcoMoon."
}
</json>
</metadata>
<defs>
<font id="Vtiger" horiz-adv-x="1024">
<font-face units-per-em="1024" ascent="960" descent="-64" />
<missing-glyph horiz-adv-x="1024" />
<glyph unicode="&#x20;" d="" horiz-adv-x="512" />
<glyph unicode="&#xe600;" d="M785.724 909.076c0 0.852 0 1.276-0.424 2.132 0 1.276-0.428 2.132-0.852 3.408 0 0.856-0.428 1.28-0.428 2.132-0.424 1.276-0.852 2.132-1.276 3.412 0 0.428-0.424 1.276-0.424 1.708-0.428 1.276-1.276 2.984-2.132 4.264-7.68 14.060-23.028 23.868-40.080 23.868h-602.8c-25.152 0-45.612-20.46-45.612-45.616v-850.472c0-23.448 17.904-42.632 40.5-45.616 1.704-0.428 3.412-0.428 5.54-0.428h234.916c-54.244 61.74-87.204 142.632-87.204 231.276 0 193.648 156.988 350.632 350.636 350.632 53.708 0 104.568-12.112 150.060-33.692v347.876c0 1.708 0 3.408-0.42 5.116zM669.552 638.584c0-12.788-10.236-23.016-23.024-23.016h-415.22c-12.788 0-23.016 10.228-23.016 23.016v23.016h0.42c0 12.788 10.236 23.024 23.028 23.024h414.788c12.788 0 23.024-10.236 23.024-23.024v-23.016zM669.552 782.46c0-12.788-10.236-23.012-23.024-23.012h-415.22c-12.788 0-23.016 10.224-23.016 23.012v23.024h0.42c0 12.788 10.236 23.016 23.028 23.016h414.788c12.788 0 23.024-10.228 23.024-23.016v-23.024zM760.564 508.668c-38.388 18.204-81.296 28.428-126.608 28.428-163.376 0-295.828-132.448-295.828-295.828 0-74.784 27.808-143.036 73.576-195.12 54.216-61.704 133.66-100.708 222.252-100.708 163.38 0 295.828 132.444 295.828 295.828-0.004 118.076-69.196 219.96-169.22 267.4zM674.404 204.128v-182.444h-80.896v182.444h-172.528v76.768h172.528v179.956h80.896v-179.956h172.528v-76.768h-172.528z" data-tags="add2" />
<glyph unicode="&#xe601;" d="M139.2-58.8v861.2l149.6 143.2h454.4l149.6-143.6v-861.2h-753.6zM856.8 228v538.4h-681.6v-789.6h681.6v251.2zM820.8 515.2h-609.6v215.2h610v-215.2zM605.6 658.8h-179.6v-36h179.6v36zM820.8 264h-609.6v215.2h610v-215.2zM605.6 407.6h-179.6v-36h179.6v36zM820.8 12.8h-609.6v215.2h610v-215.2zM605.6 156.4h-179.6v-36h179.6v36z" data-tags="assets" />
<glyph unicode="&#xe602;" d="M442.096 37.836c-0.108-1.936-0.18-3.888-0.18-5.856 0-50.796 35.868-91.98 80.112-91.98s80.112 41.184 80.112 91.98c0 1.304-0.040 2.6-0.088 3.896-54.212-2.592-107.456-2.072-159.956 1.96zM807.948 314.972c-28.368 47.928-59.732 107.076-66.808 144.596-16.212 85.968 11.872 167.308-43.756 250.472-23.012 34.416-54.268 47.192-82.284 63.448 71.064 95.92-61.056 227.584-163.208 147.752-46.856-36.604-49.972-94.728-21.132-150.488-147.572-68.82-96.86-196.264-133.040-311.5-13.492-42.968-44.68-97.068-75.496-141.276-32.080-46.032-88.82-96.684-72.148-142.076 19.464-53.028 115.088-74.548 160.584-83.552 43.392-8.588 87.156-14.46 131.44-17.864 52.5-4.032 105.744-4.552 159.956-1.96 20.444 0.976 41.012 2.36 61.748 4.204 55.796 4.956 139.648 11.896 191.984 50.4 67.756 49.868-3.884 113.56-47.84 187.844zM500.188 871.072c26.268 18.124 58.92 7.828 67.972-26.524 12.156-46.168-56.612-79-83.376-31.688-13.164 23.268-7.992 42.068 15.404 58.212zM274.34 178.584c-20.628-2.6-37.768 9.688-56.144 16.692 55.636 90.34 122.772 156.080 151.696 262.968 20.416 75.432 4.788 166.616 50.012 228.504 11.748 16.084 38.2 11.196 45.888-0.156 12.564-18.544-5.568-43.232-10.772-61.068-21.72-74.332-14.48-155.816-49.512-233.92-33.9-75.572-79.060-139.832-131.168-213.020z" data-tags="bell" />
<glyph unicode="&#xe603;" d="M416.544 30.268h165.7v-80.612h-165.7v80.612zM347.128 162.376h304.532v-80.608h-304.532v80.608zM499.392 944.988c-169.768 0-307.392-143.544-307.392-320.608 0-123.472 107.236-180.728 165.040-284.14 4.72-8.444 7.368-21.924 8.628-37.82h0.084v-75.184h274.316v75.184h0.232c1.156 17.632 3.812 32.716 8.844 41.98 54.976 101.292 157.648 159.636 157.648 279.98-0.004 177.064-137.628 320.608-307.4 320.608zM685.204 577.208c0 0-3.36-17.356-24.072-22.396 0 0-47.584-7.276-50.384 12.32 0 0 5.6 171.856-110.28 206.008 0 0-25.188 17.352-14.556 47.584 0 0 10.392 37.496 49.82 20.152h1.68c0.004 0 178.020-53.74 147.792-263.668z" data-tags="bulb" />
<glyph unicode="&#xe604;" d="M896.4-57.2h-768.8c-38.8 0-70 31.2-70 70v769.2c0 38.8 31.2 70 70 70h70v-34.8c-0.4-58.4 46.8-105.2 104.8-105.2s104.8 46.8 104.8 104.8v34.8h209.6v-34.8c0-58 46.8-104.8 104.8-104.8s104.8 46.8 104.8 104.8v34.8h70c38.8 0 70-31.2 70-70v-769.2c0-38-31.2-69.6-70-69.6zM896.4 607.2h-768.8v-594.4h769.2v594.4zM302.4 432.4h-105.2v104.8h104.8v-104.8zM302.4 257.6h-105.2v104.8h104.8v-104.8zM302.4 82.8h-105.2v104.8h104.8v-104.8zM477.2 432.4h-105.2v104.8h104.8v-104.8zM477.2 257.6h-105.2v104.8h104.8v-104.8zM477.2 82.8h-105.2v104.8h104.8v-104.8zM652 432.4h-104.8v104.8h104.8v-104.8zM652 257.6h-104.8v104.8h104.8v-104.8zM652 82.8h-104.8v104.8h104.8v-104.8zM826.8 432.4h-104.8v104.8h104.8v-104.8zM826.8 257.6h-104.8v104.8h104.8v-104.8zM826.8 82.8h-104.8v104.8h104.8v-104.8zM720.8 746.8c-38 0-68.8 30.8-68.8 68.8v72.4c0 38 30.8 68.8 68.8 68.8s68.8-30.8 68.8-68.8v-72c0-38.4-30.8-69.2-68.8-69.2zM301.2 746.8c-38 0-68.8 30.8-68.8 68.8v72.4c0 38 30.8 68.8 68.8 68.8s68.8-30.8 68.8-68.8v-72c0-38.4-30.8-69.2-68.8-69.2z" data-tags="calendar" />
<glyph unicode="&#xe605;" d="M13.2 750.4c1.6 14 8 27.6 18.8 40l150.4 150.4c11.6 10 20.4 8.4 26.4-5.2l121.6-228c6.8-13.2 4.4-26.4-6.4-38.8l-55.2-54.8c-10-10-16-22.8-17.6-38.8 0-25.2 12.8-57.2 38.8-96.4s51.2-72.8 76.4-100.4l38.8-40c11.6-11.6 26.8-26 45.2-43.2s48.8-39.6 90.8-67.6c42-28 75.2-42 99.6-42 16 0 29.2 5.6 40 16.4l65.2 65.2c11.6 11.6 24.4 13.2 37.6 5.2l219.2-129.2c6-3.2 9.2-7.6 10-13.2s-0.8-10.4-5.2-14.4l-150.4-150.4c-12.4-10.8-26-17.2-40-18.8-40.8-6-87.2-0.4-138.4 16.8s-98.8 40-142.8 68.4c-44 28.4-84.4 57.2-122 86.4s-67.6 54.4-90 75.2l-32.4 31.2c-8.4 8.4-19.6 20-33.2 34.4-13.6 14.8-37.6 43.6-72 86.4-34.4 43.2-64 84.8-88.8 126s-47.2 87.2-65.6 139.6-24.8 98.8-18.8 139.6z" data-tags="call" />
<glyph unicode="&#xe606;" d="M683.992 769.34v90.948c0 20.208-16.168 36.38-36.38 36.38h-271.632c-20.216 0-36.38-16.168-36.38-36.38v-91.352h344.388l0.004 0.404zM977.452 808.548h-931.308c-20.216 0-36.38-16.164-36.38-36.38v-741.504c0-20.212 16.164-36.384 36.38-36.384h931.712c19.808 0 36.38 16.172 36.38 36.384v741.504c-0.404 20.216-16.572 36.38-36.784 36.38zM511.796 137.852c-137.948 0-249.968 112.020-249.968 249.968s112.020 249.968 249.968 249.968 249.972-112.020 249.972-249.968-112.020-249.968-249.972-249.968zM942.284 692.132c0-6.868-5.252-12.124-12.124-12.124h-91.352c-6.872 0-12.128 5.252-12.128 12.124v36.78c0 6.876 5.252 12.132 12.128 12.132h91.352c6.872 0 12.124-5.256 12.124-12.132v-36.78z" data-tags="camera" />
<glyph unicode="&#xe607;" d="M925.068 373.224v-267.884c0-18.708-10.572-33.888-33.864-33.888-5.64 0-19.568 12.020-36.696 30.1v719.036c17.128 18.072 31.056 30.080 36.696 30.080 25.4 0 33.864-15.16 33.864-33.876v-274.652c45.864-1.276 88.664-38.5 88.664-84.452 0-45.976-42.804-83.176-88.664-84.464zM380.18 307.928c2.116 0 0 306.304 0 306.304 232.664 0 370.564 102.124 443.248 172.156v-650.616c-72.68 70.012-210.584 172.156-443.248 172.156zM244.688 39.696l-67.76 268.916h-67.76c0 0-20.112 45.708-29.3 101.656h-38.46c-18.72 0-33.876 15.156-33.876 33.864v33.888c0 18.696 15.156 33.876 33.876 33.876h38.46c9.188 55.92 29.3 101.616 29.3 101.616h237.16v-304.9h-67.76l8.536-33.868h33.816l16.944-67.768h-33.68l42.148-167.28h-101.644z" data-tags="campaigns" />
<glyph unicode="&#xe608;" d="M797.6 547.6c0-52-17.6-100-52.8-144s-83.2-78.8-144-104.8c-60.8-25.6-126.8-38.4-198.4-38.4-32 0-65.2 2.8-98.8 8.8-46.4-32.8-98.4-56.8-156-71.6-13.6-3.2-29.6-6.4-48.4-8.8h-1.6c-4 0-8 1.6-11.6 4.4s-5.6 6.8-6.4 11.6c-0.4 1.2-0.4 2.4-0.4 3.6s0 2.4 0.4 3.6c0 1.2 0.4 2.4 1.2 3.2l1.6 2.8c0 0 0.8 1.2 2 3.2s2 2.8 2.4 2.8c0 0 1.2 0.8 2.4 2.8s2.4 2.8 2.4 2.4c2 2.4 6 6.8 12.8 14s11.6 12.8 14.4 16.4c2.8 4 7.2 9.2 12.8 16.4 5.6 6.8 10 14 14 21.6s7.6 15.6 11.6 24.8c-46.4 26.8-82.8 60-109.2 99.2s-40 81.2-40 125.6c0 52 17.6 100 52.8 144s83.2 79.2 143.6 104.8 126.8 38.4 198.4 38.4 137.6-12.8 198.4-38.4 108.8-60.4 144-104.8c34.8-43.6 52.4-91.6 52.4-143.6v0zM1013.2 404c0-44.8-13.2-86.8-40-126s-63.2-72-109.2-98.8c3.6-8.8 7.6-17.2 11.6-24.8s8.8-14.8 14-21.6c5.6-6.8 9.6-12.4 12.8-16.4 2.8-4 8-9.6 14.4-16.4s11.2-11.6 12.8-14c0.4-0.4 1.2-1.2 2.4-2.4s2-2.4 2.4-2.8c0.4-0.4 1.2-1.6 2.4-2.8s1.6-2.4 2-3.2l1.6-2.8c0 0 0.4-1.2 1.2-3.2s0.8-3.6 0.4-3.6c-0.4 0-0.8-1.6-0.4-3.6-1.2-5.2-3.6-9.2-7.2-12.4-3.6-2.8-8-4.4-12.4-4-18.8 2.8-34.8 5.6-48.4 8.8-57.6 14.8-109.6 38.8-156 71.6-33.6-6-66.4-8.8-98.8-8.8-101.2 0-189.6 24.8-264.8 74 21.6-1.6 38-2.4 49.2-2.4 60.4 0 118 8.4 173.2 25.2s104.8 40.8 148 72.4c46.8 34.4 82.8 74 107.6 118.8 25.2 44.8 37.6 92.4 37.6 142.4 0 28.8-4.4 57.2-12.8 85.2 48.4-26.4 86.4-60 114.4-100 28-39.6 42-82.4 42-128.4v0z" data-tags="chat" />
<glyph unicode="&#xe609;" d="M1017.672 486.996c0-66.756-22.592-128.38-67.78-184.864-45.196-56.484-106.812-101.164-184.876-134.54-78.048-32.864-162.78-49.292-254.692-49.292-41.084 0-83.704 3.588-126.836 11.3-59.568-42.116-126.324-72.924-200.268-91.92-17.46-4.108-38-8.224-62.136-11.3h-2.056c-5.136 0-10.268 2.060-14.892 5.648-4.624 3.592-7.188 8.732-8.216 14.896-0.512 1.54-0.512 3.084-0.512 4.616 0 1.544 0 3.084 0.512 4.624 0 1.54 0.512 3.084 1.54 4.108l2.052 3.588c0 0 1.028 1.548 2.568 4.108 1.544 2.572 2.568 3.596 3.084 3.596 0 0 1.54 1.024 3.084 3.588s3.084 3.596 3.084 3.084c2.568 3.080 7.7 8.728 16.428 17.968 8.732 9.248 14.892 16.432 18.488 21.060 3.592 5.132 9.244 11.808 16.432 21.052 7.192 8.732 12.836 17.976 17.976 27.736 5.136 9.752 9.756 20.024 14.892 31.832-59.568 34.408-106.296 77.024-140.188 127.352-33.892 50.324-51.352 104.244-51.352 161.244 0 66.752 22.592 128.376 67.784 184.86 45.188 56.488 106.812 101.672 184.348 134.544 77.54 32.86 162.784 49.292 254.7 49.292s176.652-16.432 254.704-49.292c78.048-32.868 139.672-77.54 184.86-134.544 44.676-55.964 67.268-117.588 67.268-184.344v0z" data-tags="chat2" />
<glyph unicode="&#xe60a;" d="M448 42l-406 304v191.2l406 304.8v-228.8l-246.8-171.6 246.8-171.6v-228zM578 269.6l246.8 171.6-246.8 171.6v229.2l406-304.4v-191.2l-406-304v227.2z" data-tags="code" />
<glyph unicode="&#xe60b;" d="M38.196 378.252v124.776c27.732 1.38 48.632 5.196 62.692 11.436 14.052 6.24 26.216 16.716 36.476 31.452 10.256 14.728 17.284 33.184 21.088 55.368 3.036 16.636 4.56 45.572 4.56 86.824 0 67.236 3.42 114.116 10.256 140.632 6.84 26.512 19.18 47.832 37.048 63.948 17.852 16.116 43.884 28.852 78.080 38.212 23.168 6.24 59.648 9.36 109.424 9.36h30.204v-124.256c-42.172 0-69.248-2.168-81.216-6.5-11.968-4.336-20.8-10.916-26.5-19.756-5.7-8.836-8.552-24.004-8.552-45.492 0-21.836-1.708-63.256-5.128-124.256-1.904-34.312-6.836-62.128-14.82-83.44-7.98-21.316-18.148-38.912-30.492-52.768-12.352-13.868-31.256-28.252-56.708-43.152 22.416-11.784 40.748-25.564 55-41.332 14.248-15.772 25.164-34.92 32.768-57.444 7.596-22.536 12.54-52.692 14.82-90.464 2.656-57.536 3.992-94.268 3.992-110.216 0-22.876 3.036-38.812 9.12-47.832 6.072-9.008 15.288-15.856 27.64-20.536 12.34-4.68 39.040-7.020 80.076-7.020v-124.772h-30.204c-51.296 0-90.62 3.732-117.976 11.176-27.356 7.46-50.44 19.848-69.248 37.176-18.808 17.332-31.444 38.732-37.9 64.208-6.468 25.472-9.688 65.592-9.688 120.356 0 63.764-3.044 105.188-9.12 124.252-8.36 27.724-21 47.572-37.9 59.528-16.908 11.956-42.84 18.796-77.792 20.532zM990.428 378.252c-27.74-1.392-48.64-5.2-62.692-11.436-14.064-6.24-26.128-16.728-36.192-31.452-10.072-14.736-17.196-33.192-21.372-55.368-3.048-16.636-4.56-45.412-4.56-86.304 0-67.24-3.332-114.2-9.976-140.892-6.652-26.684-18.904-48.088-36.756-64.208-17.864-16.116-44.084-28.856-78.652-38.212-23.18-6.24-59.652-9.36-109.424-9.36h-30.204v124.772c40.648 0 67.252 2.34 79.788 7.020s21.748 11.436 27.64 20.276c5.888 8.836 8.92 23.832 9.116 44.968 0.188 21.144 1.8 61.52 4.848 121.136 1.896 36.044 7.024 64.9 15.388 86.564 8.352 21.656 19.464 40.032 33.34 55.108 13.868 15.076 31.632 28.332 53.288 39.768-28.12 16.636-48.64 32.924-61.552 48.872-17.868 22.876-30.020 51.988-36.476 87.34-4.188 24.256-7.224 77.636-9.12 160.128-0.384 25.996-2.944 43.324-7.692 51.992-4.756 8.66-13.304 15.336-25.648 20.016-12.352 4.68-39.992 7.016-82.92 7.016v124.264h30.204c51.292 0 90.62-3.64 117.976-10.916 27.356-7.28 50.34-19.676 68.96-37.172 18.612-17.504 31.248-38.992 37.9-64.468 6.644-25.476 9.976-65.596 9.976-120.356 0-63.428 2.848-104.848 8.548-124.256 8.356-27.732 21.088-47.572 38.188-59.528s43.116-18.804 78.080-20.536v-124.776z" data-tags="code-braces" />
<glyph unicode="&#xe60c;" d="M1012.376 370.992v154.028l-150.832 15.96c-8.38 31.924-20.348 61.052-35.112 86.588l96.168 118.912-112.128 112.124-118.912-96.168c-25.536 15.168-54.664 26.736-86.584 35.116l-15.964 150.832h-154.024l-15.96-150.832c-31.924-8.38-61.052-20.352-86.588-35.116l-118.912 96.168-112.124-112.124 96.164-118.912c-15.164-25.536-26.736-54.664-35.116-86.588l-150.832-15.96v-154.028l150.832-15.96c8.38-31.92 20.352-61.052 35.116-86.588l-96.164-118.912 112.124-112.124 118.912 96.164c25.536-15.16 54.668-26.732 86.588-35.108l15.96-150.836h154.024l15.964 150.836c31.92 8.38 61.052 20.348 86.584 35.108l118.912-96.164 112.128 112.124-96.168 118.912c15.16 25.54 26.736 54.668 35.112 86.588l150.832 15.96zM676.684 283.324c-44.86-44.856-99.324-67.284-164.684-67.284s-120.468 22.428-164.68 67.284c-44.856 44.856-67.284 99.324-67.284 164.68v0 0 0c0 65.36 22.428 120.468 67.284 164.68 44.852 44.856 99.32 67.284 164.68 67.284 65.364 0 120.468-22.428 164.684-67.284 44.212-44.856 67.28-99.32 67.28-164.68 0-65.356-22.428-120.468-67.28-164.68z" data-tags="cog" />
<glyph unicode="&#xe60d;" d="M892.56-47.8c0 0 77.976-7.632 77.976 71.236l-36.244 91.588c0 0-50.52 147.988-114.22 231.944s-138.748 0-138.748 0-32.944-78.868-143.136-81.416h-37.344c-109.828 2.548-143.14 81.416-143.14 81.416s-83.468 83.956-147.532 0c-63.7-83.956-119.708-229.4-119.708-229.4l-35.144-92.864c0-78.872 83.832-72.508 83.832-72.508h753.408zM788.548 668.384c0-152.219-123.397-275.616-275.616-275.616s-275.616 123.397-275.616 275.616c0 152.219 123.397 275.616 275.616 275.616s275.616-123.397 275.616-275.616z" data-tags="contacts" />
<glyph unicode="&#xe60e;" d="M42.4 779.2c44.8 0 277.6 0 311.6 0s51.2-53.2 51.2-53.2 12.8-36.4 36.4-36.4c23.6 0 358.8 0 418.4 0s59.6-64-2-64c-62 0-582.8 0-604.4 0-12.8-2-38.4-12.8-44.8-51.2l-83.2-520.8c0 0-36.4 10.8-42.8 46.8-4.4 36.4-72.4 627.6-72.4 627.6s-12.8 51.2 32 51.2zM270.8 604h708.8c21.2 0 38.4-17.2 38.4-38.4l-74.8-474c0-21.2-17.2-38.4-38.4-38.4h-708.4c-21.2 0-38.4 17.2-38.4 38.4l74.4 474c0 21.2 17.2 38.4 38.4 38.4z" data-tags="documents" />
<glyph unicode="&#xe60f;" d="M352.72 187.416h21.736zM483.684 305.788l220.74 159.96v-349.612zM9.852 511.252h694.872l-347.44-236.784zM357.284 200.52l109.288 69.652 236.66-214.776h-691.888l236.648 212.3zM230.884 305.788l-220.736 159.96v-349.612l220.736 189.652zM857.968 678.384h-693.376v-88h620.964v-367.86h72.412zM1014.148 832.608h-693.38v-88h620.964v-367.86h72.416z" data-tags="email campaigns" />
<glyph unicode="&#xe610;" d="M693.72 470.904l319.896 231.812v-506.66zM7.024 768.668h1007.024l-503.516-343.156zM510.532 318.344l158.384 100.936 342.968-311.256h-1002.696l342.952 307.672zM327.348 470.904l-319.896 231.812v-506.664l319.896 274.852z" data-tags="email" />
<glyph unicode="&#xe611;" d="M211.008 362.476c-35.068 48.264-128.908 3.448-119.676-67.92 2.348-18.164 15.48-36.024 38.816-37.204 15.144-0.76 23.588 8.476 37.192 6.472-2.492-14.872-10.484-22.724-9.7-37.196 1.972-36.536 43.992-42.496 76.012-30.724-33.48-53.076 21.636-92.828 71.16-64.7-27.148-39.524-7.764-86.372 42.052-82.48 49.132 3.832 94.856 58.412 66.312 101.896-10.86 16.528-38.628 27.512-64.692 21.016 14.172 48.124-19.576 80.424-64.692 74.392 9.86 47.7-23.252 73.092-66.312 67.928 3.892 20.392 1.012 38.216-6.472 48.52zM1016.416 689.16c0-101.888 0-203.78 0-305.668-46.264-4.3-100.852-29.384-140.696-16.172-26.944 8.936-48.528 38.816-66.308 56.604-42.184 42.188-83.76 80.536-124.532 121.292-19.936 19.94-40.4 51.156-64.692 59.844-37.312 13.34-58.356-5.688-80.864-17.792-31.952-17.172-59.524-29.016-90.56-45.284-13.744-7.2-30.304-19.312-46.9-21.024-55.228-5.696-85.976 58.12-51.756 97.036 14.748 16.768 51.684 30.192 74.392 43.668 55.592 32.976 94.208 54.2 150.404 85.712 24.96 14 55.492 35.8 85.724 32.344 32.52-3.716 61.556-35.656 84.092-54.988 11.64-9.972 24.568-21.992 37.204-32.344 13.828-11.344 26.072-26.448 38.804-32.344 33.532-15.528 76.276 4.080 109.98 11.32 27.9 6 55.664 11.056 85.708 17.796zM4 372.176c0 116.98 0 233.964 0 350.948 60.32-10.484 115.984-61.264 179.52-37.2 27.888 10.568 54.436 33.452 84.096 48.52 58.764 29.856 151.368 70.48 207.012 4.852-43.972-28.524-106.112-50.836-147.168-87.332-36.74-32.652-42.768-102.188-8.084-142.32 13.28-15.376 40.212-35.276 76.008-33.964 36.476 1.34 66.216 22.432 98.652 37.2 23.648 10.764 50.024 29.548 76.016 29.112 38.676-0.652 62.856-40.212 84.096-61.46 38.584-38.58 75.584-73.972 114.828-113.208 15.62-15.616 48.172-41.124 50.132-64.692 2.344-28.056-14.824-45.908-37.196-48.528-55.944-6.544-75.744 74.596-118.064 82.484 5.504-40.036 75.972-63.752 79.248-108.36 2.236-30.404-15.9-49.408-45.28-48.524-27.64 0.836-46.936 29.148-63.076 45.288-20.020 20.016-33.172 39.628-58.236 50.132 5.712-21.26 24.616-35.932 42.056-53.368 15.592-15.596 39.54-32.828 38.82-59.84-0.764-28.364-22.556-48.032-54.992-42.056-21.864 4.028-36.136 29.672-53.368 46.904-17.964 17.96-34.244 38.008-53.376 43.664 2.892-40.212 71.156-53.208 71.156-101.892 0-25.592-18.264-45.524-45.284-45.284-28.084 0.252-39.724 25.144-54.988 42.048 8.068 62.52-27.496 95.424-69.54 113.216-10.016 35.796-33.468 58.18-66.312 71.156-10.964 34.856-35.42 56.228-67.924 69.536-11.752 43.268-48.56 71.508-97.040 71.164-55.94-0.408-90.932-36.192-108.356-76.016-17.2 6.536-33.188 14.264-53.356 17.82z" data-tags="engagement history" />
<glyph unicode="&#xe612;" d="M450.8 820.8v61.2h-252v-61.2h-188.8v-125.2h188.8v-61.2h252v60.8h561.6v125.6h-561.6zM388 695.2h-126.4v125.6h126.4v-125.6zM450.8 192.8v61.2h-252v-61.2h-188.8v-125.2h188.8v-61.2h252v61.2h561.6v125.2h-561.6zM388 67.2h-126.4v125.2h126.4v-125.2zM571.6 381.2v-61.2h252v61.2h188.8v125.2h-188.8v61.6h-252v-61.2h-561.6v-125.2h561.6zM634 506.8h126.8v-125.2h-126.8v125.2z" data-tags="equalizer" />
<glyph unicode="&#xe613;" d="M467.627 23.162l-360.255 64.646v717.855l360.255 64.646v71.090h-457.204v-989.329h457.204zM787.394 446.734l-204.618 223.836v-147.49h-415.727v-152.69h415.727v-147.49z" horiz-adv-x="791" data-tags="exit" />
<glyph unicode="&#xe614;" d="M884 316v-216h-740v216h-127.332v-338.668h994.664v338.668zM425.336 645.332v-453.332h167.996v453.332h184l-267.996 266.668-262.668-266.668z" data-tags="export" />
<glyph unicode="&#xe615;" d="M723.736 487.34c0 33.772-7.94 65.68-22 94.012l-206.636-305.164c5.536-0.432 11.116-0.724 16.764-0.724 117.012 0.004 211.872 94.856 211.872 211.876zM700.74 736.832c-60.912 27.856-123.052 41.9-186.196 41.9-289.392 0-484.836-294.5-493.016-307.036l-18.328-28.096 20.084-26.868c91.5-122.42 187.316-208.38 286.436-257.368l54.476 80.448c-82.032 37.336-163.14 106.308-242.516 206.444 39.612 51.188 135.952 161.428 263.876 211.184-51.92-38.616-85.564-100.424-85.564-170.104 0-78.904 43.16-147.676 107.124-184.14l236.824 349.748c-3.348 2.672-6.78 5.244-10.288 7.716 4.092-1.516 8.184-3.112 12.272-4.788l54.816 80.96zM442.596 437.66c-51.028 0-92.396 41.364-92.396 92.392s41.368 92.392 92.396 92.392c51.028 0.004 92.392-41.364 92.392-92.392s-41.364-92.392-92.392-92.392zM1000.396 474.276c-71.688 95.54-146.040 168.772-222.56 219.464l-53.832-79.5c60.112-39.584 119.592-96.228 178.116-169.764-51.74-67.516-201.132-237.6-392.78-237.6-19.24 0-38.456 1.776-57.64 5.224l-57.712-85.232c38.040-10.608 76.504-15.992 115.352-15.992 289.468 0 484.756 295.876 492.924 308.468l18.248 28.12-20.116 26.812zM410.928 276.188l374.348 552.856c14.892 21.984 10.64 50.852-9.476 64.476-20.124 13.624-48.5 6.848-63.392-15.136l-553.772-817.82c-14.888-21.984-10.644-50.852 9.48-64.476s48.5-6.852 63.384 15.132l179.428 264.968z" data-tags="eye-close" />
<glyph unicode="&#xe616;" d="M511.864 702.408c-117.016 0-211.876-94.856-211.876-211.872 0-117.020 94.86-211.872 211.876-211.872 117.012 0 211.872 94.852 211.872 211.872 0 117.016-94.86 211.872-211.872 211.872zM442.596 440.856c-51.028 0-92.396 41.364-92.396 92.392s41.368 92.392 92.396 92.392c51.028 0.004 92.392-41.364 92.392-92.392s-41.364-92.392-92.392-92.392zM509.34 114.072c-170.832 0-334.368 102.908-486.060 305.86l-20.080 26.864 18.328 28.092c8.176 12.536 203.624 307.036 493.016 307.036 170.796 0 334.26-102.432 485.852-304.456l20.116-26.812-18.248-28.12c-8.168-12.592-203.456-308.464-492.924-308.464zM121.676 449.456c125.94-158.88 256.244-239.388 387.664-239.388 191.648 0 341.044 170.084 392.78 237.6-125.848 158.136-256.12 238.256-387.58 238.256-190.872 0.004-340.82-169.212-392.864-236.468z" data-tags="eye-open" />
<glyph unicode="&#xe617;" d="M412.896 506.912h78.344l-39.564 117.176zM958.856 864h-894.876c-30.928 0-56-25.072-56-56v-562c0-30.928 25.072-56 56-56h127.492l-125.764-160 417.276 158.252 2.94 1.752h472.932c30.928 0 56 25.076 56 56v561.996c0 30.928-25.072 56-56 56zM294.396 516.172h-119.872v-134.2h-57.976v315.78h196.844v-53.416h-138.868v-74.748h119.872v-53.416zM534.916 381.972l-25.068 71.732h-114.776l-23.7-71.732h-61.504l111.84 315.78h61.304l114.972-315.78h-63.068zM884.936 350.312c-8.752 2.876-17.304 6.82-25.664 11.844-1.824 1.008-14.688 10.344-38.584 28.004-18.804-9.052-39.628-13.572-62.48-13.572-44.136 0-78.704 14.288-103.708 42.864-25.008 28.576-37.516 68.712-37.516 120.412 0 51.552 12.536 91.652 37.612 120.3 25.068 28.652 59.084 42.976 102.040 42.976 42.572 0 76.324-14.324 101.264-42.976 24.94-28.648 37.412-68.752 37.412-120.3 0-27.284-3.46-51.268-10.376-71.948-5.228-15.796-13.584-31.088-25.080-45.88 14.236-11.204 29.708-20.108 46.424-26.712l-21.344-45.012zM756.252 648.644c-23.632 0-42.8-9.048-57.492-27.14-14.684-18.096-22.032-45.308-22.032-81.64 0-36.912 7.348-64.516 22.032-82.824 14.692-18.308 33.264-27.464 55.728-27.464 8.352 0 16.256 1.508 23.7 4.524-11.752 8.468-23.7 15.080-35.844 19.816l16.252 36.408c19.072-7.184 37.284-17.956 54.648-32.312 7.444 9.62 13.028 21.252 16.752 34.892 3.72 13.644 5.584 29.3 5.584 46.96 0 36.472-7.308 63.72-21.936 81.748-14.632 18.020-33.76 27.032-57.392 27.032z" data-tags="faqs" />
<glyph unicode="&#xe618;" d="M564.924 288.812h-111.984c-0.288 16.088-0.436 25.9-0.436 29.416 0 36.3 5.996 66.16 18.004 89.588 12.004 23.416 36.008 49.764 72.020 79.044 36.008 29.272 57.524 48.448 64.556 57.528 10.828 14.336 16.252 30.148 16.252 47.424 0 24.004-9.592 44.576-28.764 61.7-19.18 17.132-45.016 25.692-77.508 25.692-31.332 0-57.532-8.932-78.608-26.792-21.084-17.856-35.572-45.084-43.476-81.68l-113.304 0.184c3.224 52.4 25.54 110.772 66.972 147.372 41.424 36.592 95.804 54.896 163.144 54.896 70.852 0 127.204-18.516 169.076-55.552 41.872-37.040 62.792-80.144 62.792-129.332 0-27.228-7.684-52.992-23.056-77.284-15.372-24.312-48.236-57.392-98.584-99.252-26.056-21.672-42.232-39.084-48.528-52.252-6.3-13.172-9.152-36.748-8.568-70.7zM452.94 122.812v123.4h123.404v-123.4h-123.404zM512.664 868.664c231.956 0 420.668-188.708 420.668-420.668 0-231.952-188.712-420.664-420.668-420.664-231.952 0.004-420.664 188.716-420.664 420.668 0 231.956 188.712 420.664 420.664 420.664zM512.664 948.664c-276.508 0-500.664-224.152-500.664-500.664 0-276.504 224.156-500.664 500.664-500.664 276.512 0 500.668 224.156 500.668 500.664 0 276.512-224.156 500.664-500.668 500.664v0z" data-tags="faqs2" />
<glyph unicode="&#xe619;" d="M512.664 948.664c-276.508 0-500.664-224.152-500.664-500.664 0-276.504 224.156-500.664 500.664-500.664 276.512 0 500.668 224.156 500.668 500.664 0 276.512-224.156 500.664-500.668 500.664zM576.344 122.812h-123.404v123.4h123.404v-123.4zM720.6 511.016c-15.368-24.312-48.236-57.392-98.584-99.252-26.056-21.672-42.232-39.084-48.528-52.252-6.3-13.172-9.152-36.748-8.572-70.7h-111.984c-0.288 16.084-0.436 25.9-0.436 29.416 0 36.3 5.996 66.164 18.004 89.588 12.004 23.416 36.008 49.764 72.020 79.044 36.008 29.272 57.528 48.448 64.56 57.528 10.828 14.336 16.252 30.148 16.252 47.424 0 24.004-9.592 44.576-28.764 61.7-19.18 17.132-45.016 25.692-77.508 25.692-31.332 0-57.532-8.932-78.608-26.792-21.084-17.856-35.572-45.084-43.476-81.68l-113.304 0.184c3.224 52.4 25.54 110.772 66.972 147.372 41.424 36.592 95.804 54.896 163.144 54.896 70.852 0 127.204-18.516 169.076-55.552 41.876-37.040 62.792-80.144 62.792-129.332 0.004-27.228-7.68-52.992-23.056-77.284z" data-tags="faqs3" />
<glyph unicode="&#xe61a;" d="M1002.992 934.664h-280.808l102.448-104.524-258.824-258.408-107.428 107.428 0.412 0.416-89.176 89.176-0.416-0.412-0.412 0.412-88.764-89.176 0.416-0.416-264.22-263.8v-88.772h89.18l263.8 263.808 107.844-107.844 88.764-89.176 347.172 347.172 90.012-91.668zM194.992-27.78h-128.584v151.96l128.584 126.092zM947.824-27.78h-128.58v526.924l128.58 126.092zM758.684-27.78h-128.584v335.708l128.584 125.68zM573.692-27.78h-128.584v398.752l128.584-126.088zM384.964-27.78h-128.584v335.708l128.584 125.68z" data-tags="forecast" />
<glyph unicode="&#xe61b;" d="M926.8 940h-815.6c-42 0-76-34-76-76v-825.2c0-42 34-76 76-76h815.6c42 0 76 34 76 76v825.2c-0.4 42-34.4 76-76 76zM256.8 186.4h-88.4v81.6h88.4v-81.6zM256.8 412.8h-88.4v81.2h88.4v-81.2zM256.8 638.8h-88.4v81.6h88.4v-81.6zM889.2 186.4h-571.2v81.6h571.2v-81.6zM889.2 412.8h-571.2v81.2h571.2v-81.2zM889.2 638.8h-571.2v81.6h571.2v-81.6z" data-tags="full-details" />
<glyph unicode="&#xe61c;" d="M512.4 781.6l-431.6-366v-420.8h328v325.2h205.6v-325.2h328v420.8l-430 366zM408.4 388v101.6h205.6v-101.6h-205.6zM859.6 598.4v273.2h-134v-159.2l-213.6 181.6-503.2-427.6v-38h45.2l458 389.2 457.6-389.2h44.8l0.8 38z" data-tags="home" />
<glyph unicode="&#xe61d;" d="M952.8 879.6v-868.8h-872.4v868.8h872.4zM1012.8 939.6h-992.4v-988.8h992.4v988.8zM919.2 702.8c0-76.215-61.785-138-138-138s-138 61.785-138 138c0 76.215 61.785 138 138 138s138-61.785 138-138zM134 60.8v122l217.2 406.8 284-294.4 264 199.2v-433.6z" data-tags="image" />
<glyph unicode="&#xe61e;" d="M884 316v-216h-740v216h-127.332v-338.668h994.664v338.668zM598.664 458.668v453.332h-167.996v-453.332h-184l267.996-266.668 262.668 266.668z" data-tags="import" />
<glyph unicode="&#xe61f;" d="M895.6 759.6h-120.8v-672.4c0-23.596-19.2-42.8-42.8-42.8h-423.2v-57.2c0-23.596 19.2-42.8 42.8-42.8h544c23.596 0 42.796 19.204 42.796 42.8v729.6c0.004 23.6-19.196 42.8-42.796 42.8zM742 911.6c0 0.8 0 1.2-0.4 2 0 1.2-0.404 2-0.8 3.2 0 0.8-0.404 1.2-0.404 2-0.4 1.2-0.796 2-1.2 3.2 0 0.4-0.4 1.2-0.4 1.6-0.404 1.2-1.2 2.8-2 4-7.2 13.2-21.6 22.4-37.6 22.4h-565.596c-23.6 0-42.8-19.2-42.8-42.8v-798c0-22 16.8-40 38-42.8 1.6-0.4 3.2-0.4 5.2-0.4l565.6-0.4c23.596 0 42.796 19.2 42.796 42.796v798.404c0.004 1.6 0.004 3.2-0.396 4.8zM293.632 568.676l68.14 1.836c1.168 0 1.748 1.224 1.748 2.448v215.136l-69.888 1.836c0 16.532 0 71.532 0 88.068 24.5 0 95.552-0.612 122.384-0.612 29.164 0 96.72 0.612 120.632 0.612 0-16.532 0-71.532-0.584-88.068l-70.472-1.836c-1.168 0-1.168-1.224-1.168-3.060l-1.748-214.524 73.388-1.836c0-17.144 0-71.532-0.584-88.676-23.916 0-92.636 0.612-122.384 0.612-26.248 0-93.804-0.612-120.052-0.612 0.008 17.144 0.008 71.532 0.588 88.676zM631.252 221.2c0-12-9.6-21.596-21.6-21.596h-389.6c-12 0-21.6 9.596-21.6 21.596v21.6h0.4c0 12 9.6 21.596 21.6 21.596h389.2c12 0 21.6-9.596 21.6-21.596v-21.6zM631.252 356.8c0-12-9.6-21.6-21.6-21.6h-389.6c-12 0-21.6 9.6-21.6 21.6v21.6h0.4c0 12 9.6 21.6 21.6 21.6h389.2c12 0 21.6-9.6 21.6-21.6v-21.6z" data-tags="invoice" />
<glyph unicode="&#xe620;" d="M192.388 174.444c-12.404 0-22.328 9.916-22.328 22.32v22.328h0.412c0 12.4 9.92 22.32 22.324 22.32h210.016c2.312 25.404 7.692 49.908 15.744 73.172h-226.168c-12.404 0-22.328 9.92-22.328 22.328v22.32h0.412c0 12.404 9.92 22.328 22.324 22.328h258.436c55.384 85.584 151.612 142.264 261.136 142.264 6.68 0 13.3-0.236 19.876-0.652v382.18c0 1.656 0 3.308-0.416 4.96 0 0.828 0 1.24-0.416 2.068 0 1.244-0.416 2.068-0.828 3.308 0 0.828-0.416 1.24-0.416 2.068-0.416 1.24-0.824 2.068-1.244 3.308 0 0.416-0.416 1.24-0.416 1.656-0.416 1.24-1.248 2.896-2.068 4.132-7.444 13.644-22.328 23.152-38.86 23.152h-584.544c-24.392-0.004-44.236-19.848-44.236-44.24v-824.752c0-22.74 17.364-41.34 39.272-44.24 1.652-0.416 3.308-0.416 5.376-0.416h353.156c-27.82 40.196-46.408 87.212-52.704 138.084h-211.512zM268.432 555.892l70.424 1.896c1.204 0 1.804 1.264 1.804 2.532v222.348l-72.228 1.896c0 17.088 0 73.932 0 91.020 25.32 0 98.752-0.632 126.484-0.632 30.144 0 99.96 0.632 124.676 0.632 0-17.084 0-73.928-0.604-91.020l-72.832-1.896c-1.212 0-1.212-1.264-1.212-3.164l-1.804-221.716 75.844-1.896c0-17.72 0-73.928-0.6-91.652-24.72 0-95.74 0.632-126.488 0.632-27.124 0-96.948-0.632-124.072-0.632 0.012 17.724 0.012 73.932 0.608 91.652zM828.468 458.132c-30.256 14.352-63.592 23.272-98.756 25.504-5.744 0.36-11.516 0.564-17.344 0.564-95.564 0-179.524-49.456-227.844-124.136-11.724-18.108-21.336-37.696-28.508-58.436-7.024-20.292-11.72-41.68-13.736-63.844-0.752-8.188-1.18-16.468-1.18-24.86 0-11.376 0.76-22.568 2.132-33.576 5.492-44.38 21.704-85.416 45.976-120.472 5.992-8.664 12.42-16.992 19.36-24.884 49.72-56.584 122.572-92.352 203.808-92.352 149.82 0 271.28 121.452 271.28 271.272-0.008 108.288-63.46 201.704-155.188 245.22zM850.804 339.748l-91.132-185.864c-8.14-16.608-26.4-24.368-40.764-17.32l-160.756 78.828c-14.376 7.044-19.416 26.224-11.272 42.832 8.148 16.612 26.4 24.372 40.764 17.324l126.624-62.088 76.384 155.784c8.148 16.608 28.22 23.472 44.828 15.328s23.472-28.212 15.324-44.824z" data-tags="invoice-recurring" />
<glyph unicode="&#xe621;" d="M945.6 118h-108.8v36.8c19.6 0 36.8 15.2 36.8 36.8s-15.2 36.8-36.8 36.8h-71.6c-19.6 0-36.8-15.2-36.8-36.8s15.2-36.8 36.8-36.8v-36.8h-467.2v36.8c19.6 0 36.8 15.2 36.8 36.8s-15.2 36.8-36.8 36.8h-71.6c-19.6 0-36.8-15.2-36.8-36.8s15.2-36.8 36.8-36.8v-36.8h-143.2c-39.2 0-71.6 32.4-71.6 71.6v504c0 39.2 32.4 71.6 71.6 71.6h862.4c39.2 0 71.6-32.4 71.6-71.6v-504c0-39.2-32.8-71.6-71.6-71.6zM298 663.2c-43.6 0-78.4-45.6-78.4-104.4 0-56.4 34.8-104.4 78.4-104.4s78.4 45.6 78.4 104.4c0 58.8-34.8 104.4-78.4 104.4zM422 417.6c-19.6 13.2-76 21.6-76 21.6s-36.8-39.2-52-39.2c-15.2 0-52 39.2-52 39.2s-56.4-8.8-76-21.6c-19.6-13.2-28.4-80.4-28.4-80.4h310.8c4-2-2.8 65.2-26.4 80.4zM871.6 622h-323.6v-36.8h323.6v36.8zM871.6 550.4h-323.6v-36.8h323.6v36.8zM871.6 478.4h-323.6v-36.8h323.6v36.8zM871.6 404.8h-323.6v-36.8h323.6v36.8z" data-tags="leads" />
<glyph unicode="&#xe622;" d="M343.96 122.3c-22.368-22.032-50.96-35.080-80.476-36.736-29.616-1.644-55.604 7.776-74.32 26.808l-17.184 17.584c-39.072 40.044-33.632 109.58 12.060 154.936l225.18 221.716-96.648 97.272-224.236-221.2c-103.912-102.6-113.744-262.592-21.9-356.652l17.228-17.632c41.732-42.556 99.232-65.992 161.904-65.992 4.968 0 10.024 0.148 15.060 0.44 66.292 3.948 129.888 32.968 179.012 81.656l227.628 224.172-96.744 96.744-226.564-223.116zM957.564 870.372l-17.308 17.712c-41.584 41.996-99.084 65.12-161.928 65.12-5.056 0-10.212-0.152-15.356-0.448-66.296-3.952-129.892-32.972-179.008-81.66l-227.236-223.764 96.756-96.756 226.552 223.528c22.376 22.032 50.964 35.080 80.476 36.74 29.644 1.624 55.6-7.78 74.32-26.812l17.188-17.588c39.076-40.040 33.628-109.576-12.064-154.936l-225.236-221.768 96.76-96.756 224.176 221.144c104.036 102.704 113.844 262.536 21.908 356.244zM385.75 282.527l-56.568 56.568 309.141 309.141 56.568-56.568-309.141-309.141z" data-tags="link" />
<glyph unicode="&#xe623;" d="M343.96 122.3c-22.368-22.032-50.96-35.080-80.476-36.736-29.616-1.644-55.604 7.776-74.32 26.808l-17.184 17.584c-39.072 40.044-33.632 109.58 12.060 154.936l225.18 221.716-96.648 97.272-224.236-221.2c-103.912-102.6-113.744-262.592-21.9-356.652l17.228-17.632c41.732-42.556 99.232-65.992 161.904-65.992 4.968 0 10.024 0.148 15.060 0.44 66.292 3.948 129.888 32.968 179.012 81.656l227.628 224.172-96.744 96.744-226.564-223.116zM957.564 870.372l-17.308 17.712c-41.584 41.996-99.084 65.12-161.928 65.12-5.056 0-10.212-0.152-15.356-0.448-66.296-3.952-129.892-32.972-179.008-81.66l-227.236-223.764 96.756-96.756 226.552 223.528c22.376 22.032 50.964 35.080 80.476 36.74 29.644 1.624 55.6-7.78 74.32-26.812l17.188-17.588c39.076-40.040 33.628-109.576-12.064-154.936l-225.236-221.768 96.76-96.756 224.176 221.144c104.036 102.704 113.844 262.536 21.908 356.244zM271.502 719.35l-31.112-31.112-84.852 84.852 31.112 31.112 84.852-84.852zM214.531 653.413l-11.387-42.5-91.95 24.637 11.387 42.5 91.95-24.637zM281.87 837.495l42.496 11.386 24.637-91.95-42.496-11.386-24.637 91.95zM751.235 177.697l31.112 31.117 84.864-84.852-31.112-31.117-84.864 84.852zM808.432 243.812l11.387 42.5 91.95-24.637-11.387-42.5-91.95 24.637zM741.18 59.351l-42.5-11.392-24.646 91.95 42.5 11.392 24.646-91.95z" data-tags="link-open" />
<glyph unicode="&#xe624;" d="M223.948 766.048c0-57.124-46.308-103.432-103.432-103.432s-103.432 46.308-103.432 103.432c0 57.124 46.308 103.432 103.432 103.432s103.432-46.308 103.432-103.432zM346 833.904h658.668v-135.712h-658.668v135.712zM223.948 448.74c0-57.124-46.308-103.432-103.432-103.432s-103.432 46.308-103.432 103.432c0 57.124 46.308 103.432 103.432 103.432s103.432-46.308 103.432-103.432zM346 516.596h658.668v-135.712h-658.668v135.712zM223.944 131.428c0-57.122-46.306-103.428-103.428-103.428s-103.428 46.306-103.428 103.428c0 57.122 46.306 103.428 103.428 103.428s103.428-46.306 103.428-103.428zM346 199.284h658.668v-135.712h-658.668v135.712z" data-tags="list" />
<glyph unicode="&#xe625;" d="M793.796 568.104h-563.596c-26.284 0-47.788-21.5-47.788-47.784v-519.98c0-26.276 21.504-47.784 47.788-47.784h563.596c26.288 0 47.788 21.508 47.788 47.784v519.98c0 26.284-21.5 47.784-47.788 47.784zM598.184 118.064h-172.368l57.632 117.112c-33.536 11.792-57.632 43.668-57.632 81.248 0 47.592 38.584 86.18 86.18 86.18s86.184-38.584 86.184-86.18c0-37.58-24.084-69.448-57.628-81.248l57.632-117.112zM706.084 952h-388.168c-39.584 0-71.788-32.204-71.788-71.788v-369.964h131.404v310.348h268.928v-310.348h131.408v369.964c0 39.584-32.196 71.788-71.784 71.788z" data-tags="lock" />
<glyph unicode="&#xe626;" d="M627.356 568.104h-563.6c-26.284 0-47.788-21.5-47.788-47.784v-519.98c0-26.276 21.504-47.784 47.788-47.784h563.6c26.284 0 47.784 21.508 47.784 47.784v519.98c0 26.284-21.5 47.784-47.784 47.784zM431.74 118.064h-172.368l57.632 117.112c-33.54 11.792-57.632 43.668-57.632 81.248 0 47.592 38.584 86.18 86.18 86.18 47.6 0 86.184-38.584 86.184-86.18 0-37.58-24.088-69.448-57.628-81.248l57.632-117.112zM940.22 952h-388.172c-39.584 0-71.788-32.204-71.788-71.788v-369.964h131.404v310.348h268.932v-310.348h131.404v369.964c0 39.584-32.2 71.788-71.78 71.788z" data-tags="lock-open" />
<glyph unicode="&#xe627;" d="M517.132 143.208l-76.172 53.468c-25.916-36.64-51.984-73.256-78.368-109.768-42.956-59.176-114.804-76.572-174.092-54.432l-81.372-82.208h820.364l-281.132 286.532-129.228-93.592zM960.256-49.372v513.668l-294.46-213.456zM601.528 423.932c-14.768-20.144-11.972-16.724-26.748-37.548-5.368-7.384-10.744-15.44-16.112-22.824-34.252-48.38-68.324-96.936-102.588-145.484l61.056-43.912 440.956 317.128h-63.464c-13.036-12.74-28.68-23.272-43.856-35.74-118.5-97.32-236.48-36.316-249.244-31.62zM317.188 491.296h-241.016l141.336-101.644zM362.392 124.176c24.048 33.284 47.804 66.66 71.428 100.064 4.6 6.5 9.192 13.004 13.78 19.504 31.236 44.252 62.292 88.512 93.508 132.604 4.9 6.74 9.796 14.080 14.696 20.812 13.46 18.972 26.924 37.944 40.396 56.312 11.624-4.288 21.416-8.572 31.828-11.632 62.424-20.2 123.632-19.584 179.332 18.364 14.792 10.080 28.092 20.964 39.976 32.576 54.48 53.248 78.72 122.168 75.704 203.068-0.612 23.256-6.732 45.904-11.012 72.836-5.512-5.512-7.968-7.348-9.8-9.184-48.348-53.252-97.312-106.496-145.668-160.36-6.736-7.34-12.24-9.18-21.42-4.896-33.668 15.304-67.936 28.764-102.216 44.072-6.124 3.060-12.856 7.956-16.532 13.468-21.416 31.212-41.612 63.652-62.424 94.868-4.284 6.124-4.284 10.404 0.612 17.136 32.436 41.008 64.264 83.244 96.088 124.864 14.688 18.972 28.768 37.336 44.684 58.148-8.568 0.612-14.688 1.832-20.2 2.448-61.82 4.284-119.348-9.796-170.764-44.68-105.272-72.224-146.284-190.964-68.552-310.32 5.508-7.956 3.672-12.852-2.452-18.972-26.928-26.932-53.244-53.864-79.568-80.792l-1.7-1.696-16.664-16.664c-3.060-3.060-6.732-6.732-9.788-9.796l-67.94-68.548-34.28-34.28c-1.224-1.224-1.836-1.832-1.836-1.832l-17.14-17.136c-15.304-15.3-30.604-30.604-45.908-45.908-0.608-0.612-0.608-0.612-1.22-1.228l-1.224-1.228c-1.224-1.832-2.448-3.668-4.284-4.892-1.224-1.232-1.836-3.064-3.060-4.288-35.5-44.064-41.62-101.592-15.916-149.956 12.236-22.736 29.336-40.076 49.004-51.92 6.992-4.216 14.3-7.728 21.832-10.54 54.056-20.18 119.544-4.328 158.7 49.604zM231.044 135.236c-20.436 6.416-37.464 22.568-44.32 44.64-11.628 36.724 8.568 74.672 45.904 85.688 34.060 9.736 72.94-10.76 83.040-44.048 0.064-0.212 0.14-0.416 0.204-0.632 3.024-10.416 3.772-20.732 2.52-30.456-3.316-25.708-20.724-47.24-47.812-55.236-2.972-0.916-5.96-1.604-8.94-2.1-10.484-1.736-20.92-0.892-30.596 2.144zM145.412 58.376c-12.952 11.74-24.164 26.312-34.632 42.628-7.444 11.6-13.648 23.724-18.424 36.084-21.84 74.912 4.252 112.836 24.772 142.664v0c23.756 27.12 81.576 93.372 81.576 93.372l-125.768 91.176v-513.668l91.612 93.404c-2.808 1.692-5.536 3.512-8.192 5.436-3.844 2.94-7.484 5.908-10.944 8.904z" data-tags="mail-manager" />
<glyph unicode="&#xe628;" d="M345.052 705.62c-1.58 0.608-3.168 1.208-4.772 1.78-20.332 7.040-41.836 10.948-64.516 10.948-87.984 0-162.276-59.048-185.74-139.596h165.984c4.12 18.64 10.812 36.332 19.792 52.5 16.82 30.384 40.472 56.032 69.252 74.368zM275.376 733.992c24.636 0 47.316 8.996 64.516 23.46 5.476 4.692 10.952 10.168 15.252 16.032 6.252 8.212 11.34 17.204 14.86 27.372 2.736 7.428 4.3 15.64 5.084 23.852 0.388 3.128 0.388 6.256 0.388 9.384 0 17.988-4.688 35.192-13.292 49.66-5.868 10.168-13.292 19.552-22.288 26.984-17.596 14.856-39.884 23.46-64.516 23.46-5.476 0-10.948-0.392-16.42-1.564-9.78-1.564-19.16-4.696-27.764-8.996-18.768-8.996-34.020-23.852-44.184-42.232-7.82-14.080-12.12-30.5-12.12-47.708 0.392-21.9 7.82-43.012 20.724-59.828 18.364-24.236 47.3-39.876 79.76-39.876zM729.632 636.016c10.356-17.408 17.892-36.776 22.332-57.26h176.416c-17.592 60.216-62.948 107.92-121.216 128.648-20.328 7.040-41.836 10.948-64.52 10.948-26.472 0-51.7-5.384-74.688-15.056 5.676-3.88 11.152-8.044 16.42-12.5 18.264-15.084 33.356-34.14 45.256-54.78zM742.256 733.992c24.64 0 47.316 8.996 64.52 23.46 5.472 4.692 10.948 10.168 15.252 16.032 6.252 8.212 11.34 17.204 14.856 27.372 2.736 7.428 4.304 15.64 5.084 23.852 0.392 3.128 0.392 6.256 0.392 9.384 0 17.988-4.688 35.192-13.292 49.66-5.864 10.168-13.296 19.552-22.288 26.984-17.596 14.856-39.888 23.46-64.52 23.46-5.476 0-10.948-0.392-16.42-1.564-9.772-1.564-19.16-4.696-27.76-8.996-18.768-8.996-34.024-23.852-44.188-42.232-7.816-14.080-12.12-30.5-12.12-47.708 0.392-21.9 7.82-43.012 20.724-59.828 18.372-24.236 47.304-39.876 79.76-39.876zM636.1 228.876c-41.272 14.292-84.948 22.236-131 22.236-178.64 0-329.488-119.892-377.128-283.444h754.256c-35.728 122.264-127.828 219.128-246.128 261.208zM705.68 457.736c0.416 3.104 0.788 6.212 1.084 9.328 0.788 6.348 0.788 12.704 0.788 19.056 0 14.88-1.604 29.484-4.656 43.568-4.444 20.484-11.98 39.856-22.328 57.26-11.916 20.64-27 39.696-45.26 54.784-5.268 4.448-10.752 8.616-16.416 12.5-32.772 22.436-71.94 35.14-114.584 35.14-11.116 0-22.228-0.792-33.344-3.176-19.848-3.172-38.904-9.524-56.372-18.256-7.076-3.392-13.904-7.196-20.468-11.38-28.784-18.336-52.436-43.984-69.248-74.372-8.984-16.164-15.676-33.856-19.796-52.496-3.168-14.316-4.82-29.192-4.82-44.364 0.164-9.288 0.992-18.5 2.376-27.584 2.88-18.9 8.324-37.208 16.092-54.352 6.368-14.068 14.268-27.368 23.612-39.54 37.316-49.224 96.068-80.984 161.968-80.984 50.020 0 96.068 18.256 131 47.64 11.116 9.528 22.236 20.644 30.968 32.556 9.484 12.444 17.632 25.78 24.132 40.328 2.212 4.936 4.228 10.012 6.040 15.248 4.512 12.256 7.44 25.58 9.232 39.096zM40.628 457.736l33.628 59.828-64.128-59.828v-54.348h252.944c-7.064 17.272-12.336 35.464-15.58 54.348h-206.864zM950.052 517.564l33.628-59.828h-220.856c-3.244-18.888-8.52-37.076-15.584-54.348h266.16v54.348h0.392l-63.74 59.828z" data-tags="meeting" />
<glyph unicode="&#xe629;" d="M295.256 701.592c25.4 0 48.78 9.272 66.512 24.188 5.648 4.836 11.292 10.484 15.724 16.528 6.448 8.468 11.692 17.74 15.32 28.22 2.82 7.66 4.432 16.124 5.24 24.592 0.4 3.224 0.4 6.448 0.4 9.672 0 18.544-4.832 36.284-13.704 51.196-6.048 10.484-13.704 20.156-22.98 27.82-18.144 15.316-41.12 24.188-66.516 24.188-5.648 0-11.288-0.404-16.928-1.612-10.084-1.612-19.752-4.84-28.628-9.272-19.348-9.272-35.072-24.592-45.552-43.536-8.064-14.512-12.5-31.444-12.5-49.184 0.404-22.576 8.064-44.344 21.364-61.68 18.952-24.992 48.784-41.12 82.248-41.12zM726.512 696.824c25.4 0 48.78 9.272 66.516 24.188 5.644 4.84 11.288 10.488 15.728 16.532 6.444 8.468 11.688 17.74 15.316 28.22 2.824 7.66 4.432 16.124 5.244 24.588 0.404 3.224 0.404 6.448 0.404 9.672 0 18.544-4.832 36.28-13.712 51.196-6.048 10.484-13.7 20.156-22.976 27.82-18.14 15.32-41.12 24.188-66.516 24.188-5.644 0-11.284-0.404-16.928-1.612-10.084-1.612-19.752-4.84-28.624-9.272-19.352-9.272-35.076-24.592-45.56-43.54-8.064-14.512-12.492-31.444-12.492-49.184 0.404-22.58 8.064-44.344 21.36-61.68 18.948-24.988 48.784-41.116 82.24-41.116zM295.256-11.84c25.4 0 48.78 9.268 66.512 24.188 5.648 4.836 11.292 10.48 15.724 16.528 6.448 8.464 11.692 17.736 15.32 28.224 2.82 7.656 4.432 16.12 5.24 24.588 0.4 3.224 0.4 6.448 0.4 9.676 0 18.54-4.832 36.276-13.704 51.192-6.048 10.488-13.704 20.156-22.98 27.82-18.144 15.32-41.12 24.188-66.516 24.188-5.648 0-11.288-0.404-16.928-1.608-10.084-1.612-19.752-4.84-28.628-9.272-19.348-9.276-35.072-24.592-45.552-43.54-8.064-14.516-12.5-31.444-12.5-49.188 0.404-22.576 8.064-44.344 21.364-61.676 18.952-24.996 48.784-41.12 82.248-41.12zM726.512-16.608c25.4 0 48.78 9.268 66.516 24.188 5.644 4.836 11.288 10.484 15.728 16.528 6.444 8.464 11.688 17.74 15.316 28.224 2.824 7.656 4.432 16.12 5.244 24.592 0.404 3.22 0.404 6.444 0.404 9.672 0 18.544-4.832 36.276-13.712 51.196-6.048 10.484-13.7 20.156-22.976 27.82-18.14 15.32-41.12 24.188-66.516 24.188-5.644 0-11.284-0.404-16.928-1.612-10.084-1.612-19.752-4.84-28.624-9.272-19.352-9.272-35.076-24.592-45.56-43.54-8.064-14.512-12.492-31.444-12.492-49.184 0.404-22.58 8.064-44.344 21.36-61.68 18.948-24.996 48.784-41.12 82.24-41.12zM115.608 342.832c25.404 0 48.784 9.272 66.52 24.188 5.64 4.84 11.284 10.488 15.724 16.532 6.452 8.468 11.696 17.744 15.32 28.224 2.82 7.656 4.436 16.12 5.236 24.588 0.404 3.224 0.404 6.448 0.404 9.672 0 18.544-4.832 36.28-13.7 51.196-6.048 10.484-13.708 20.156-22.98 27.82-18.148 15.32-41.128 24.188-66.52 24.188-5.648 0-11.288-0.404-16.932-1.612-10.076-1.612-19.752-4.84-28.62-9.272-19.352-9.272-35.080-24.592-45.556-43.54-8.060-14.516-12.496-31.444-12.496-49.184 0.404-22.58 8.064-44.344 21.364-61.684 18.944-24.988 48.776-41.116 82.236-41.116zM907.276 342.832c25.408 0 48.784 9.272 66.524 24.188 5.636 4.84 11.284 10.488 15.724 16.532 6.448 8.468 11.696 17.744 15.32 28.224 2.816 7.656 4.436 16.12 5.236 24.588 0.404 3.224 0.404 6.448 0.404 9.672 0 18.544-4.832 36.28-13.7 51.196-6.052 10.484-13.712 20.156-22.98 27.82-18.148 15.32-41.124 24.188-66.524 24.188-5.644 0-11.288-0.404-16.928-1.612-10.080-1.612-19.752-4.84-28.62-9.272-19.352-9.272-35.080-24.592-45.56-43.54-8.060-14.516-12.496-31.444-12.496-49.184 0.404-22.58 8.064-44.344 21.368-61.684 18.94-24.988 48.772-41.116 82.232-41.116zM719.264 416.78c0.424 3.2 0.812 6.408 1.116 9.612 0.812 6.548 0.812 13.096 0.812 19.644 0 15.34-1.656 30.4-4.8 44.916-4.584 21.12-12.352 41.092-23.020 59.036-12.284 21.28-27.836 40.924-46.664 56.48-5.432 4.588-11.084 8.884-16.92 12.888-33.788 23.132-74.172 36.228-118.132 36.228-11.46 0-22.916-0.816-34.38-3.272-20.464-3.272-40.108-9.82-58.12-18.824-7.292-3.5-14.332-7.42-21.096-11.732-29.676-18.908-54.064-45.344-71.396-76.676-9.26-16.664-16.164-34.904-20.408-54.124-3.272-14.76-4.972-30.092-4.972-45.74 0.168-9.58 1.024-19.072 2.448-28.436 2.972-19.484 8.584-38.36 16.592-56.036 6.564-14.504 14.712-28.216 24.34-40.764 38.472-50.748 99.044-83.492 166.984-83.492 51.572 0 99.044 18.824 135.056 49.116 11.46 9.82 22.92 21.28 31.928 33.564 9.776 12.832 18.176 26.58 24.88 41.58 2.276 5.088 4.356 10.32 6.228 15.72 4.66 12.64 7.676 26.376 9.524 40.312z" data-tags="meeting2" />
<glyph unicode="&#xe62a;" d="M563.6 948.4h-106.4c-198.4 0-358.4-159.6-358.4-358.4v-322h823.2v324.4c0 196.4-159.6 356-358.4 356zM496 326.4l-285.6-4.8 220.4 200.8 106.4-65.2-41.2-130.8zM549.2 483.6l-101.6 60.4 53.2 41.2 60.4-36.4-12-65.2zM583.2 580.4l-60.4 36.4 46 48.4 36.4-24.4-22-60.4zM612 667.6l-31.6 19.2 16.8 29.2 31.6-19.2-16.8-29.2zM98.8 186h818v-242h-818v242z" data-tags="milestone" />
<glyph unicode="&#xe62b;" d="M572.4 689.2h118.4l-177.6 256-177.6-256h119.2v-482.8h-119.2l177.6-256 177.6 256h-118.4zM754.8 388.8v-118.8l255.6 177.6-255.6 177.6v-118.8h-482.8v118.8l-256-177.6 256-177.6v118.8z" data-tags="move" />
<glyph unicode="&#xe62c;" d="M528.4 648.8h464.4v-90h-464.4v90zM17.6 944.8v-985.2h477.6v985.2h-477.6zM234.8 374h-167.2v130h167.2v-130zM234.8 568.8h-167.2v130h167.2v-130zM234.8 763.6h-167.2v130h167.2v-130zM445.2 374h-167.2v130h167.2v-130zM445.2 568.8h-167.2v130h167.2v-130zM445.2 763.6h-167.2v130h167.2v-130zM528.4 529.6v-570.4h43.6v299.6h377.2v-299.6h43.6v570.4z" data-tags="office" />
<glyph unicode="&#xe62d;" d="M428.4 743.6h165.2v-55.2h-165.2v55.2zM346.8 942l86-178.8h158.8l83.6 180.8c0 0-52.8-37.6-83.6-37.6s-79.2 37.6-79.2 37.6-52.8-39.6-83.6-39.6-82 37.6-82 37.6zM593.6 673.2h-163.2c0 0-271.2-233.6-271.2-460.8 0-242.4 282.4-262.4 282.4-262.4s83.6-13.2 136.8 0c0 0 286.8 28.8 286.8 260.4 2 228.8-271.6 462.8-271.6 462.8zM604.8 181.2c-6.8-11.2-15.6-22-26.4-28.8-11.2-8.8-24.4-13.2-39.6-17.6-2.4 0-4.4 0-6.8-2.4v-39.6h-42v35.2c0 0 0 0-2.4 0-11.2 0-22 0-33.2 2.4s-20 4.4-26.4 6.8c-6.8 2.4-13.2 4.4-20 6.8-4.4 2.4-8.8 4.4-11.2 6.8s-4.4 4.4-4.4 8.8c0 4.4-2.4 8.8-2.4 15.6 0 4.4 0 8.8 0 11.2s0 6.8 2.4 8.8c0 2.4 2.4 4.4 2.4 4.4 2.4 0 2.4 2.4 4.4 2.4 2.4 0 6.8-2.4 11.2-4.4 4.4-2.4 11.2-4.4 17.6-8.8 6.8-2.4 15.6-6.8 24.4-8.8 8.8-2.4 22-4.4 33.2-4.4 8.8 0 15.6 0 22 2.4 6.8 2.4 13.2 4.4 17.6 6.8s8.8 6.8 11.2 11.2c2.4 4.4 4.4 11.2 4.4 15.6 0 6.8-2.4 13.2-6.8 17.6s-8.8 8.8-15.6 13.2c-6.8 4.4-15.6 6.8-22 11.2-8.8 2.4-17.6 6.8-26.4 11.2s-17.6 8.8-26.4 13.2c-8.8 4.4-15.6 11.2-22 17.6-6.8 6.8-13.2 13.2-15.6 22-4.4 8.8-6.8 20-6.8 30.8 0 13.2 2.4 26.4 8.8 37.6 6.8 11.2 13.2 20 24.4 26.4 11.2 6.8 22 13.2 35.2 15.6 6.8 2.4 15.6 2.4 22 4.4v37.6h42v-33.2c2.4 0 2.4 0 4.4 0 8.8 0 15.6-2.4 22-4.4 6.8-2.4 13.2-4.4 17.6-6.8s8.8-4.4 11.2-6.8 2.4-2.4 4.4-4.4c0 0 2.4-2.4 2.4-4.4 0-2.4 0-4.4 0-6.8s0-6.8 0-11.2 0-8.8 0-11.2 0-6.8-2.4-6.8c0-2.4-2.4-4.4-2.4-4.4 2.4 0 0 0-2.4 0s-4.4 0-8.8 2.4-8.8 4.4-15.6 6.8c-6.8 2.4-13.2 4.4-22 6.8s-17.6 2.4-26.4 2.4c-6.8 0-13.2 0-20-2.4s-11.2-4.4-13.2-6.8c-4.4-2.4-6.8-6.8-8.8-11.2-2.4-4.4-2.4-8.8-2.4-13.2 0-6.8 2.4-13.2 6.8-17.6s8.8-8.8 17.6-13.2c6.8-4.4 15.6-6.8 24.4-11.2 8.8-2.4 17.6-6.8 26.4-11.2s17.6-8.8 26.4-13.2c8.8-4.4 17.6-11.2 24.4-17.6 6.8-6.8 13.2-13.2 17.6-22s6.8-20 6.8-30.8c-4-10-8.4-25.2-14.8-36.4z" data-tags="oppurtunities" />
<glyph unicode="&#xe62e;" d="M87.2 508.4h201.6v-44.4h-40v-361.2h-122v363.2h-40v42.4zM412.8 506h201.6v-40h-40v-363.2h-122v363.2h-40v40zM734 506h201.6v-40h-40v-363.2h-122v363.2h-40v40zM49.6 62.8h928.4v-40h-928.4v40zM9.6-21.2h1008v-37.6h-1008v37.6zM1002.4 594.8c-22 15.6-489.6 352.4-489.6 352.4s-463.2-336.8-487.6-352.4c-24.4-15.6-24.4-37.6 0-46.4 0 0 974.8 0 977.2 0 24 8.8 22 30.8 0 46.4zM512.8 639.2c-40 0-70.8 31.2-70.8 70.8s31.2 70.8 70.8 70.8c40 0 70.8-31.2 70.8-70.8s-31.2-70.8-70.8-70.8z" data-tags="organisation" />
<glyph unicode="&#xe62f;" d="M195.6 924l-177.2-218.8h170.4l102.4 218.8zM323.2 924l-102.4-218.8h170.4l39.2 218.8zM466.4 924l-39.6-218.8h170.4l-51.2 218.8zM584.4 924l51.2-218.8h170l-114.4 218.8zM723.6 924l114.4-218.8h170l-185.2 218.8zM103.6 613.6v0c45.6 0 83.2 36.4 84.8 82h-169.6c1.6-45.2 39.2-82 84.8-82zM306 613.6v0c45.6 0 83.2 36.4 84.8 82h-169.6c1.6-45.2 39.2-82 84.8-82zM512 613.6c45.6 0 83.2 36.4 84.8 82h-170c2-45.2 39.6-82 85.2-82zM720.4 613.6c45.6 0 83.2 36.4 84.8 82h-170c2-45.2 39.6-82 85.2-82zM922.8 613.6c45.6 0 83.2 36.4 84.8 82h-170c2-45.2 39.6-82 85.2-82zM1008 647.2c-1.6-33.6-39.2-60.8-84.8-60.8s-83.2 27.2-84.8 60.8h-32.4c-1.6-33.6-39.2-60.8-84.8-60.8s-83.2 27.2-84.8 60.8h-38.8c-1.6-33.6-39.2-60.8-84.8-60.8s-83.2 27.2-84.8 60.8h-36c-1.6-33.6-39.2-60.8-84.8-60.8v0c-45.6 0-83.2 27.2-84.8 60.8h-32.4c-1.6-33.6-39.2-60.8-84.8-60.8v0c-45.6 0-83.2 27.2-84.8 60.8v-691.2h110.8v489.6h317.6v-489.6h559.2v691.2zM914.8 334h-317.6v111.6h317.6v-111.6z" data-tags="organisation2" />
<glyph unicode="&#xe630;" d="M275.6 56.8c0 133.6 0 267.2 0 400.8 33.2 7.2 67.6 8.8 96 22.8 32.4 16 60.4 42 89.2 64.8 27.2 21.6 53.2 44.8 86.4 73.2-18 74.4-37.2 160.8-60 246.4-8.8 32.4 2 42.4 31.2 51.2 136.4 40.4 271.6 40.8 408 0 29.6-8.8 39.2-19.6 30.8-51.6-24-90.4-44.8-181.6-66.4-272.4-4-16.8-6-34-8.8-50 98.8-61.2 106-100.4 32.8-168.8 67.6-57.6 64.8-102-1.6-142.4 2-36.4 14.8-73.2 2.8-98.8-11.2-25.2-47.2-39.2-74.4-59.2 36.4-78.4 5.6-122-93.6-126-122-4.8-237.2 13.2-346.4 70.4-36.8 19.6-81.2 26-126 39.6zM886.4 797.2c-4.8-1.2-9.2-2.4-14-3.2-18.4 24.8-32.4 56.4-56.4 72-25.2 16.4-60.4 22.8-91.2 22.8-32.4-0.4-68.8-6.8-95.6-23.2-25.6-16-40.4-48.8-66.8-82.8 11.2-60 24-135.2 40.4-209.6 2.8-12.4 20.8-29.6 33.2-30.8 65.6-6.4 131.2-8.8 198-12.4 18 93.2 35.2 180.4 52.4 267.2zM66.4 244.4c0 69.2 0.8 138-0.4 207.2-0.4 32.8 11.2 47.2 45.2 46.8 145.2-2.4 124 18.4 124.8-122 0.8-113.6-0.8-227.2 0.8-341.2 0.4-38.4-12-56.8-52-53.6-25.6 2-51.6 0.8-77.6 0.4-29.2-0.8-41.2 13.6-40.8 42.4 0.4 73.2 0 146.8 0 220zM722 605.2c-44 0-84 33.2-84 70 0 36 40 66 86.8 64.8 45.6-1.2 82.4-30.8 82-65.6-0.4-36.4-40.8-69.2-84.8-69.2z" data-tags="payments" />
<glyph unicode="&#xe631;" d="M847.2-52.8h-658c-34 0-62.4 28.4-62.4 62.4v752.8c0 34 28.4 62.4 62.4 62.4v-752.8c0-34 28.4-62.4 62.4-62.4h125.2c34 0 62.4 28.4 62.4 62.4v753.2h407.6c34 0 62.4-28.4 62.4-62.4v-752.8c0.8-34.8-27.6-62.8-62-62.8zM690 42h62.4v62.4h-62.4v-62.4zM690 134.8h62.4v62.4h-62.4v-62.4zM690 229.6h62.4v62.4h-62.4v-62.4zM690 322.4h62.4v62.4h-62.4v-62.4zM597.2 42h62.4v62.4h-62.4v-62.4zM597.2 134.8h62.4v62.4h-62.4v-62.4zM597.2 229.6h62.4v62.4h-62.4v-62.4zM597.2 322.4h62.4v62.4h-62.4v-62.4zM847.2 730.4c0 18.4-14.4 32.4-32.4 32.4h-282.4c-18.4 0-32.4-14.4-32.4-32.4v-125.2c0-18.4 14.4-32.4 32.4-32.4h282.8c18.4 0 32.4 14.4 32.4 32.4v125.2zM847.2 387.2h-62.4v-62.4h62.4v62.4zM847.2 292.4h-62.4v-62.4h62.4v62.4zM847.2 197.6h-62.4v-62.4h62.4v62.4zM847.2 104.4h-62.4v-62.4h62.4v62.4zM377.2 42h-125.2c-18.4 0-32.4 14.4-32.4 32.4v782.8c0 18.4 14.4 32.4 32.4 32.4h60.4v62.4h34v-62.4h32.4c18.4 0 32.4-14.4 32.4-32.4v-782.8c-1.6-18.4-16-32.4-34-32.4z" data-tags="PBX manager" />
<glyph unicode="&#xe632;" d="M206 924v-962.4l658 485.6z" data-tags="play" />
<glyph unicode="&#xe633;" d="M419.2 797.6l-181.6 48.8c-16.8 4.4-34-5.6-38.4-22l-186-695.6c-4.4-16.8 5.6-34 22-38.4l181.6-48.8c16.8-4.4 34 5.6 38.4 22l186.4 695.6c4 16.8-5.6 34-22.4 38.4zM253.6 179.6c-13.6-50-64.8-80-115.2-66.4-50 13.6-80 64.8-66.4 115.2 13.6 50 64.8 80 115.2 66.4 50-13.6 80-65.2 66.4-115.2zM289.6 314l-181.6 48.4 97.2 362.8 181.6-48.8-97.2-362.4zM696.8 835.2h-188c-17.2 0-31.2-14-31.2-31.2v-720c0-17.2 14-31.2 31.2-31.2h188c17.2 0 31.2 14 31.2 31.2v720c0 17.2-14 31.2-31.2 31.2zM602.8 101.6c-52 0-94 42-94 94s42 94 94 94c52 0 94-42 94-94s-42-94-94-94zM696.8 334.4h-188v375.6h188v-375.6zM978.4 835.2h-188c-17.2 0-31.2-14-31.2-31.2v-720c0-17.2 14-31.2 31.2-31.2h188c17.2 0 31.2 14 31.2 31.2v720c0.4 17.2-13.6 31.2-31.2 31.2zM884.8 99.6c-52 0-94 42-94 94s42 94 94 94c52 0 94-42 94-94-0.4-52-42.4-94-94-94zM978.4 334.4h-188v375.6h188v-375.6zM884.8 240.4c26 0 46.8-21.2 46.8-46.8 0-26-21.2-46.8-46.8-46.8s-46.8 21.2-46.8 46.8c-0.4 26 20.8 46.8 46.8 46.8zM602.8 240.4c26 0 46.8-21.2 46.8-46.8 0-26-21.2-46.8-46.8-46.8s-46.8 21.2-46.8 46.8c0 26 20.8 46.8 46.8 46.8zM174.4 247.6c25.2-6.8 40-32.4 33.2-57.6s-32.4-40-57.6-33.2c-25.2 6.8-40 32.4-33.2 57.6 6.8 24.8 32.8 39.6 57.6 33.2zM822 678.8h125.2v-31.2h-125.2v31.2zM822 616h125.2v-31.2h-125.2v31.2zM540.4 678.8h125.2v-31.2h-125.2v31.2zM540.4 616h125.2v-31.2h-125.2v31.2zM227.6 687.2l120.8-32.4-8-30.4-120.8 32.4 8 30.4zM211.2 626.4l120.8-32.4-8-30-120.8 32.4 8 30zM895.6 405.2v-16.4h-17.2v14.4c0 0 0 0-0.8 0-4.8 0-9.2 0-13.6 0.8s-8.4 1.6-10.8 2.8c-2.8 0.8-5.6 1.6-8 2.8-1.6 0.8-3.6 1.6-4.4 2.8-0.8 0.8-1.6 1.6-1.6 3.6s-0.8 3.6-0.8 6.4c0 2 0 3.6 0 4.4s0 2.8 1.2 3.6c0 0.8 1.2 2 1.2 2 0.8 0 0.8 0.8 2 0.8 0.8 0 2.8-0.8 4.4-1.6s4.4-1.6 7.2-3.6c2.8-0.8 6.4-2.8 10-3.6s9.2-1.6 13.6-1.6c3.6 0 6.4 0 9.2 1.2s5.6 2 7.2 2.8c2 0.8 3.6 2.8 4.8 4.8s2 4.4 2 6.4c0 2.8-0.8 5.2-2.8 7.2-1.6 1.6-3.6 3.6-6.4 5.2s-6.4 2.8-8.8 4.4c-3.6 0.8-7.2 2.8-10.8 4.4s-7.2 3.6-10.8 5.2c-3.6 1.6-6.4 4.4-8.8 7.2-2.8 2.8-5.2 5.2-6.4 8.8-1.6 3.6-2.8 8-2.8 12.4 0 5.6 1.2 10.8 4 15.6s5.6 8.4 10 10.8c4.8 2.8 9.2 5.6 14.4 6.4 2.8 1.2 6.4 1.2 9.2 2v15.2h17.2v-13.6c0.8 0 0.8 0 2 0 3.6 0 6.4-0.8 9.2-1.6s5.6-1.6 7.2-2.8c1.6-0.8 3.6-1.6 4.4-2.8 0.8-0.8 0.8-0.8 1.6-1.6 0 0 0.8-0.8 0.8-1.6s0-2 0-2.8c0-0.8 0-2.8 0-4.4 0-2 0-3.6 0-4.4s0-2.8-1.2-2.8c0-0.8-1.2-2-1.2-2-0.4 0-0.8 0-0.8 0-0.8 0-2 0-3.6 0.8s-3.6 1.6-6.4 2.8c-2.8 0.8-5.6 1.6-9.2 2.8-3.6 0.8-7.2 0.8-10.8 0.8-2.8 0-5.6 0-8.4-1.2s-4.8-2-5.6-2.8c-2-0.8-2.8-2.8-3.6-4.8-1.2-2-1.2-3.6-1.2-5.6 0-2.8 0.8-5.2 2.8-7.2 1.6-1.6 3.6-3.6 7.2-5.2 2.8-1.6 6.4-2.8 10-4.4 3.6-0.8 7.2-2.8 10.8-4.4s7.2-3.6 10.8-5.2c3.6-1.6 7.2-4.4 10-7.2s5.2-5.2 7.2-8.8c1.6-3.6 2.8-8 2.8-12.4-1.6-4-3.6-10.4-6.4-14.8-2.8-4.8-6.4-9.2-10.8-12-4.8-3.6-10-5.6-16.4-7.2-2.4 0-3.2 0-4-1.2zM613.6 405.2v-16.4h-17.2v14.4c0 0 0 0-0.8 0-4.8 0-9.2 0-13.6 0.8s-8.4 1.6-10.8 2.8c-2.8 0.8-5.6 1.6-8 2.8-1.6 0.8-3.6 1.6-4.4 2.8-0.8 0.8-1.6 1.6-1.6 3.6s-0.8 3.6-0.8 6.4c0 2 0 3.6 0 4.4s0 2.8 1.2 3.6c0 0.8 1.2 2 1.2 2 0.8 0 0.8 0.8 2 0.8 0.8 0 2.8-0.8 4.4-1.6s4.4-1.6 7.2-3.6c2.8-0.8 6.4-2.8 10-3.6s9.2-1.6 13.6-1.6c3.6 0 6.4 0 9.2 1.2s5.6 2 7.2 2.8c2 0.8 3.6 2.8 4.8 4.8s2 4.4 2 6.4c0 2.8-0.8 5.2-2.8 7.2-1.6 1.6-3.6 3.6-6.4 5.2s-6.4 2.8-8.8 4.4c-3.6 0.8-7.2 2.8-10.8 4.4s-7.2 3.6-10.8 5.2c-3.6 1.6-6.4 4.4-8.8 7.2-2.8 2.8-5.2 5.2-6.4 8.8-1.6 3.6-2.8 8-2.8 12.4 0 5.6 1.2 10.8 4 15.6s5.6 8.4 10 10.8c4.8 2.8 9.2 5.6 14.4 6.4 2.8 1.2 6.4 1.2 9.2 2v15.2h17.2v-13.6c0.8 0 0.8 0 2 0 3.6 0 6.4-0.8 9.2-1.6s5.6-1.6 7.2-2.8c1.6-0.8 3.6-1.6 4.4-2.8 0.8-0.8 0.8-0.8 1.6-1.6 0 0 0.8-0.8 0.8-1.6s0-2 0-2.8c0-0.8 0-2.8 0-4.4 0-2 0-3.6 0-4.4s0-2.8-1.2-2.8c0-0.8-1.2-2-1.2-2-0.4 0-0.8 0-0.8 0-0.8 0-2 0-3.6 0.8s-3.6 1.6-6.4 2.8c-2.8 0.8-5.6 1.6-9.2 2.8-3.6 0.8-7.2 0.8-10.8 0.8-2.8 0-5.6 0-8.4-1.2s-4.8-2-5.6-2.8c-2-0.8-2.8-2.8-3.6-4.8-1.2-2-1.2-3.6-1.2-5.6 0-2.8 0.8-5.2 2.8-7.2 1.6-1.6 3.6-3.6 7.2-5.2 2.8-1.6 6.4-2.8 10-4.4 3.6-0.8 7.2-2.8 10.8-4.4s7.2-3.6 10.8-5.2c3.6-1.6 7.2-4.4 10-7.2s5.2-5.2 7.2-8.8c1.6-3.6 2.8-8 2.8-12.4-1.6-4-3.6-10.4-6.4-14.8-2.8-4.8-6.4-9.2-10.8-12-4.8-3.6-10-5.6-16.4-7.2-2 0-2.8 0-4-1.2zM233.6 410l-3.6-16-16.8 3.6 3.2 14c0 0 0 0-0.8 0.4-4.4 0.8-8.8 2-13.2 3.6-4.4 2-7.6 3.6-10 4.8-2.4 1.6-4.8 2.8-7.6 4.4-1.6 1.2-3.2 2.4-4 3.6s-1.2 2-0.8 4c0.4 1.6 0 3.6 0.4 6.4 0.4 1.6 0.8 3.6 1.2 4.4s0.8 2.8 1.6 3.2c0.4 0.8 1.2 1.6 1.2 1.6 0.8-0.4 1.2 0.8 2 0.4s2.4-1.6 4-2.8c1.6-1.2 4-2.8 6.4-4.8 2.4-1.6 5.6-4 9.2-5.6 3.2-1.6 8.4-3.6 12.8-4.4 3.6-0.8 6.4-1.2 9.2-0.8s5.6 0.8 7.6 1.2c2 0.4 4 2 5.6 3.6 1.2 1.6 2.8 4 3.2 6 0.8 2.8 0.4 5.6-1.2 7.6-1.2 2-2.8 4.4-5.2 6.4-2.4 2.4-5.6 4-8 6.4-3.2 1.6-6.4 4-9.6 6.8-3.2 2.4-6.4 4.8-9.6 7.6-3.2 2.4-5.2 5.6-7.2 8.8s-4 6.4-4.4 10c-0.8 4-0.8 8.4 0 12.8 1.2 5.2 3.2 10.4 6.8 14.4s7.2 6.8 12.4 8.4c5.2 1.6 10 3.6 15.6 3.2 2.8 0.4 6.4-0.4 9.2 0l3.6 15.2 16.8-3.6-3.2-13.2c0.8-0.4 0.8-0.4 1.6-0.4 3.6-0.8 6-2.4 8.4-3.6 2.4-1.6 4.8-2.8 6.4-4s3.2-2.4 4-3.6c0.8-1.2 0.8-1.2 1.2-2 0 0 0.8-1.2 0.4-2s-0.4-1.6-0.8-2.8c-0.4-0.8-0.8-2.8-1.2-4.4s-0.8-3.6-1.2-4.4c-0.4-0.8-0.8-2.8-1.6-2.4-0.4-0.8-1.2-1.6-1.2-1.6-0.4 0-0.8 0-0.8 0.4-0.8 0.4-1.6 0.4-3.2 1.6s-3.2 2.4-5.6 4c-2.4 1.6-4.8 2.8-8.4 4.4-3.2 1.6-6.8 2.4-10.4 3.2-2.8 0.4-5.2 1.2-8.4 0.8-2.8-0.4-4.8-0.8-6-1.6-2-0.4-3.2-2-4.4-3.6s-1.6-3.2-2-5.2c-0.8-2.8-0.4-5.6 1.2-7.6 1.2-2 2.8-4.4 6-6.8 2.4-2.4 5.6-4 8.8-6.4 3.2-1.6 6.4-4 9.6-6.8 3.2-2.4 6.4-4.8 9.6-7.6 3.2-2.4 6-6 8.4-9.2 2-3.2 4-6.4 5.2-10.4 0.8-4 0.8-8.4 0-12.8-2.4-3.6-5.6-9.2-9.2-13.2s-8.4-7.6-13.2-9.2c-5.2-2.4-11.2-3.2-17.6-3.6-0.4-0.4-1.2-0.4-2.4-0.8z" data-tags="price books" />
<glyph unicode="&#xe634;" d="M133.2 570.4l-66.8-179.2 378-190 66.8 190-378 179.2zM582.4 201.2l-64.8 188 378 179.2 75.6-179.2-388.8-188zM133.2 570.4l-129.6 151.2 384.4 196.4 123.2-155.6-378-192zM517.6 762.4l127.2 155.6 375.6-200.8-123.2-148.8-379.6 194zM111.6 341.6l338.8-172.8 56 148.8v-343.2l-397.2 183.6 2.4 183.6zM917.2 341.6l-343.2-170.4-52 148.8v-343.2l397.2 183.6v181.2h-2z" data-tags="products" />
<glyph unicode="&#xe635;" d="M945.2-25.2h-864c-40.8 0-74.8 34.4-74.8 74.8v451.6c0 0 196.8-100.4 374.4-141.2v-44.8c0-21.2 17.2-38.4 38.4-38.4h188.4c21.2 0 38.4 17.2 38.4 38.4v42.8c179.6 40.8 374.4 141.2 374.4 141.2v-451.2c-0.4-41.2-34.4-73.2-75.2-73.2zM568.8 424c21.2 0 38.4-17.2 38.4-38.4v-38.4c0-21.2-17.2-38.4-38.4-38.4h-113.2c-21.2 0-38.4 17.2-38.4 38.4v38.4c0 21.2 17.2 38.4 38.4 38.4h113.2zM646.4 424c0 21.2-17.2 38.4-38.8 38.4h-189.2c-21.6 0-38.8-17.2-38.8-38.4v-34.4c-180.4 42.8-376 145.6-376 145.6v149.6c0 40.8 34.4 74.8 75.2 74.8h225.6v74.8c0 40.8 34.4 74.8 75.2 74.8h264.8c40.8 0 75.2-34.4 75.2-74.8v-74.8h225.6c40.8 0 75.2-34.4 75.2-74.8v-149.6c0 0-195.6-102.4-373.6-145.2l-0.4 34zM643.6 800.4c0 21.2-17.2 38.4-38.4 38.4h-188.4c-21.2 0-38.4-17.2-38.4-38.4s0-38.4 0-38.4h263.2c2 0 2 17.2 2 38.4z" data-tags="projects" />
<glyph unicode="&#xe636;" d="M899.6 287.6c-90-19.6-276.8-239.6-336-347.2-85.6 103.2-186.8 180-257.2 204.4l166.8 98.8 81.2-151.6c0 0 131.6 307.6 336 410.8-6.4-72.4-26-136.4 9.2-215.2zM770 764c0 17.6-13.2 30.8-30.8 30.8h-125.2v61.6h153.6c35.2 0 63.6-28.4 63.6-61.6v-296.4c-35.2-13.2-61.6-44-61.6-44v309.6zM675.6 764c17.6 0 30.8-13.2 30.8-30.8s0-61.6 0-61.6h-439.6c0 0 0 46 0 61.6 0 17.6 13.2 30.8 30.8 30.8h94.4c0 0 0 39.6 0 90 0 52.8 39.6 96.8 92.4 96.8s96.8-46 96.8-96.8c0-54.8 0-90 0-90h94.4zM486.4 858.8c-17.6 0-30.8-13.2-30.8-30.8s13.2-30.8 30.8-30.8 30.8 13.2 30.8 30.8c0 15.2-13.2 30.8-30.8 30.8zM205.2 764v-720.4c0-17.6 13.2-30.8 30.8-30.8h184.4c32.8-17.6 54.8-41.6 68-61.6h-285.6c-35.2 0-61.6 28.4-61.6 61.6v782c0 35.2 28.4 61.6 61.6 61.6h158v-61.6h-127.6c-14.8 0-28-13.2-28-30.8zM739.2 12.8c17.6 0 30.8 13.2 30.8 30.8v103.2c19.6 22 41.6 39.6 61.6 57.2v-191.2c0-35.2-30.8-61.6-63.6-61.6h-160.4c13.2 19.6 28.4 41.6 44 61.6h87.6z" data-tags="project-task" />
<glyph unicode="&#xe637;" d="M895.6 759.6h-120.8v-672.4c0-23.6-19.2-42.8-42.8-42.8h-423.2v-57.2c0-23.6 19.2-42.8 42.8-42.8h544c23.6 0 42.8 19.2 42.8 42.8v729.6c0 23.6-19.2 42.8-42.8 42.8zM742 911.6c0 0.8 0 1.2-0.4 2 0 1.2-0.4 2-0.8 3.2 0 0.8-0.4 1.2-0.4 2-0.4 1.2-0.8 2-1.2 3.2 0 0.4-0.4 1.2-0.4 1.6-0.4 1.2-1.2 2.8-2 4-7.2 13.2-21.6 22.4-37.6 22.4h-565.6c-23.6 0-42.8-19.2-42.8-42.8v-798c0-22 16.8-40 38-42.8 1.6-0.4 3.2-0.4 5.2-0.4l565.6-0.4c23.6 0 42.8 19.2 42.8 42.8v798.4c0 1.6 0 3.2-0.4 4.8zM134 517.2v290h148.8c32.4 0 56.8-7.6 72.8-23.2s24.4-37.2 24.4-66c0-29.2-8.8-52-26.4-68.8-17.6-16.4-44.4-24.8-80.4-24.8h-49.2v-107.6h-90zM640 221.2c0-12-9.6-21.6-21.6-21.6h-389.6c-12 0-21.6 9.6-21.6 21.6v21.6h0.4c0 12 9.6 21.6 21.6 21.6h389.2c12 0 21.6-9.6 21.6-21.6v-21.6zM640 356.8c0-12-9.6-21.6-21.6-21.6h-389.6c-12 0-21.6 9.6-21.6 21.6v21.6h0.4c0 12 9.6 21.6 21.6 21.6h389.2c12 0 21.6-9.6 21.6-21.6v-21.6zM682.8 580.8c-11.6-21.6-28-38.4-49.6-50.8-21.6-12-48.4-18-80.4-18-32.8 0-59.6 5.2-81.2 15.6s-38.8 26.8-52 49.6c-13.2 22.4-20 50.8-20 84.8 0 47.2 13.2 84 39.6 110.4s63.2 39.6 110 39.6c48.4 0 85.6-12.8 111.6-38.8s39.2-62 39.2-108.8c0-34-6-62-17.2-83.6zM282 692.4c6.8 6 10.4 13.6 10.4 23.2 0 9.2-3.2 16.8-9.2 23.2s-17.6 9.6-34.4 9.6h-24.8v-64.8h22c17.2 0 29.2 2.8 36 8.8zM548.8 744c-18 0-32.4-6.4-43.6-19.2-10.8-12.8-16.4-34-16.4-63.6 0-29.2 5.6-50.4 16.4-63.2s25.6-19.2 44.4-19.2c19.2 0 34 6.4 44.8 18.8 10.4 12.4 16 35.2 16 67.6 0 27.2-5.6 47.2-16.4 60-11.2 12.8-26.4 18.8-45.2 18.8z" data-tags="purchase-order" />
<glyph unicode="&#xe638;" d="M895.6 759.6h-120.8v-672.4c0-23.6-19.2-42.8-42.8-42.8h-423.2v-57.2c0-23.6 19.2-42.8 42.8-42.8h544c23.6 0 42.8 19.2 42.8 42.8v729.6c0 23.6-19.2 42.8-42.8 42.8zM408.8 564c7.6 0 14.8 0.8 21.6 2.4-9.6 9.2-24.4 17.6-44.8 26l17.6 40.4c10-2 17.6-4 23.2-6.8s16.4-9.6 32.4-20.8c4-2.8 8-5.2 12.4-8.4 8.8 16 13.6 40 13.6 72 0 36.8-6.8 63.2-20.4 78.8s-32.4 23.6-56.4 23.6c-22.4 0-40.4-8-54.4-24s-20.8-41.2-20.8-75.2c0-39.6 6.8-67.6 20.4-83.6 13.2-16.4 32-24.4 55.6-24.4zM742 911.6c0 0.8 0 1.2-0.4 2 0 1.2-0.4 2-0.8 3.2 0 0.8-0.4 1.2-0.4 2-0.4 1.2-0.8 2-1.2 3.2 0 0.4-0.4 1.2-0.4 1.6-0.4 1.2-1.2 2.8-2 4-7.2 13.2-21.6 22.4-37.6 22.4h-565.6c-23.6 0-42.8-19.2-42.8-42.8v-798c0-22 16.8-40 38-42.8 1.6-0.4 3.2-0.4 5.2-0.4l565.6-0.4c23.6 0 42.8 19.2 42.8 42.8v798.4c0 1.6 0 3.2-0.4 4.8zM269.6 806.8c32.8 33.2 79.2 50 138.4 50 60.4 0 107.2-16.4 140-48.8s49.2-78.8 49.2-139.6c0-54-13.2-96.8-39.6-129.2 14-9.6 23.2-16 27.6-18.4 6.4-3.6 15.2-8 26-12.8l-31.2-63.2c-15.6 7.6-31.2 16.8-46.8 27.2s-26 18.4-32.4 23.6c-24.8-10.8-56-16-93.6-16-55.2 0-99.2 14.4-131.2 43.2-37.6 34-56.8 82-56.8 144 0.8 60 17.2 106.8 50.4 140zM640.4 221.2c0-12-9.6-21.6-21.6-21.6h-389.6c-12 0-21.6 9.6-21.6 21.6v21.6h0.4c0 12 9.6 21.6 21.6 21.6h389.2c12 0 21.6-9.6 21.6-21.6v-21.6zM640.4 356.8c0-12-9.6-21.6-21.6-21.6h-389.6c-12 0-21.6 9.6-21.6 21.6v21.6h0.4c0 12 9.6 21.6 21.6 21.6h389.2c12 0 21.6-9.6 21.6-21.6v-21.6z" data-tags="quotes" />
<glyph unicode="&#xe639;" d="M111.2 709.6l80.4-644c0-66.8 54-120.8 120.8-120.8h402.4c66.8 0 120.8 54 120.8 120.8l80.4 644h-804.8zM392.8 65.6h-80.4v523.2h80.4v-523.2zM554 65.6h-80.4v523.2h80.4v-523.2zM714.8 65.6h-80.4v523.2h80.4v-523.2zM433.2 951.2h160.8c22.4 0 40.4-80.4 40.4-80.4h-241.6c0-0.4 18 80.4 40.4 80.4zM131.2 870.4h764.8c33.2 0 60.4-27.2 60.4-60.4s0-60.4 0-60.4h-885.6c0 0 0 27.2 0 60.4 0 33.6 27.2 60.4 60.4 60.4z" data-tags="recycle-bin" />
<glyph unicode="&#xe63a;" d="M682.4 817.6v76c0 32-26.4 58.4-58.4 58.4h-230c-32 0-58.4-26.4-58.4-58.4v-76h-214.4v-95.6h778v95.6h-216.8zM411.2 874.4c0 10.8 8.8 19.6 19.6 19.6h157.2c10.8 0 19.6-8.8 19.6-19.6v-56.8h-196v56.8zM157.6 700.4v-758.4h704.8v758.4h-704.8zM359.2 60c0-10.8-8.8-19.6-19.6-19.6h-58c-10.8 0-19.6 8.8-19.6 19.6v522.4c0 10.8 8.8 19.6 19.6 19.6h58.4c10.8 0 19.6-8.8 19.6-19.6v-522.4zM558.4 60c0-10.8-8.8-19.6-19.6-19.6h-58.4c-10.8 0-19.6 8.8-19.6 19.6v522.4c0 10.8 8.8 19.6 19.6 19.6h58.4c10.8 0 19.6-8.8 19.6-19.6v-522.4zM758 60c0-10.8-8.8-19.6-19.6-19.6h-58.4c-10.8 0-19.6 8.8-19.6 19.6v522.4c0 10.8 8.8 19.6 19.6 19.6h58.4c10.8 0 19.6-8.8 19.6-19.6v-522.4z" data-tags="recycle-bin2" />
<glyph unicode="&#xe63b;" d="M213.312 577.032h120v-423.804h-120v423.804zM12 941.948h120v-987.9h-120v987.9zM12 74.048h1000v-120h-1000v120zM448.44 834.88h120v-681.656h-120v681.656zM683.172 723.884h120v-570.66h-120v570.66z" data-tags="reports" />
<glyph unicode="&#xe63c;" d="M746.4 928h-143.2l25.2-241.6h-245.6l23.2 241.6h-157.6l-232.4-966h298l22.8 240h342.4l25.2-240h298l-256 966zM348.4 322.8l23.2 242.4h269.6l25.6-242.4h-318.4z" data-tags="road" />
<glyph unicode="&#xe63d;" d="M1000-2.8c0-13.2 0-26 0-39.2-62.4 0-125.2 0-187.6 0 0 1.6-0.4 3.6-0.4 5.2-0.4 32-2.4 63.6-6.4 95.2-3.6 26.8-8 53.2-14.4 79.6-14 60-34.8 118-62.4 173.2-44.4 89.2-103.6 167.2-177.2 234.4-54 49.2-113.6 90.4-179.2 123.6-58 29.2-118.8 51.2-182.4 65.2-22.8 5.2-45.6 9.6-68.8 12-16.8 2-34 4-50.8 5.2s-34 1.2-51.2 2c-0.8 0-2 0.4-3.2 0.4 0 1.6 0 3.2 0 4.8 0 59.6 0 118.8 0 178.4 0 1.6 0 3.2 0.4 4.4 9.6 0 18.8 0 28.4 0 2-0.4 4-0.8 6-0.8 23.2-0.8 46.4-2.4 69.6-4.8 28.4-3.2 56.8-7.2 84.8-12.8 51.2-10 101.2-24 150-42 138.4-51.2 258.8-129.6 362.4-234.4 36-36.4 68.8-75.6 98.8-117.6 72.8-102 124.8-213.6 154.8-334.8 10.8-42.8 18.4-86 23.2-129.6 2.4-21.2 4.4-42.4 4.4-63.6 0.4-1.2 0.8-2.4 1.2-4zM16 607.6c7.6-0.4 15.2-0.4 23.2-0.8 16.8-0.4 33.6-2 50.4-3.6 27.6-3.2 55.2-8 82.4-14.8 90.8-22.4 173.2-62.8 246.4-121.2 76.4-60.4 136.4-134 179.6-221.2 25.6-51.2 44-105.2 55.2-161.6 5.6-28 9.2-56.4 11.2-85.2 0.8-12.4 0.8-25.2 1.2-37.6 0-1.2 0.4-2.4 0.4-3.6-63.2 0-126 0-189.2 0 0 0.8 0 1.2 0 2 0 20.4-1.6 40.8-4.4 60.8-3.6 26.4-9.2 52.4-17.6 77.6-24 74.4-64.4 138.8-120.8 192.8-42.4 40.8-90.8 72-145.6 94.4-37.2 15.2-75.6 24.8-115.2 30-19.2 2.4-38.4 3.6-58 3.6 0.8 62.8 0.8 125.6 0.8 188.4zM16 99.6c0.4 1.6 1.2 3.2 1.6 5.2 6.4 55.6 49.2 102 104.8 112.4 64 12.4 127.6-24 148.8-85.6 21.2-61.2-6.4-129.2-64.8-158.4-74.8-37.6-165.2 4-185.6 84.8-1.2 5.2-2 10.4-2.8 16-0.4 1.6-0.8 3.2-1.6 5.2-0.4 6.4-0.4 13.2-0.4 20.4z" data-tags="rss" />
<glyph unicode="&#xe63e;" d="M895.6 759.6h-120.8v-672.4c0-23.6-19.2-42.8-42.8-42.8h-423.2v-57.2c0-23.6 19.2-42.8 42.8-42.8h544c23.6 0 42.8 19.2 42.8 42.8v729.6c0 23.6-19.2 42.8-42.8 42.8zM742 911.6c0 0.8 0 1.2-0.4 2 0 1.2-0.4 2-0.8 3.2 0 0.8-0.4 1.2-0.4 2-0.4 1.2-0.8 2-1.2 3.2 0 0.4-0.4 1.2-0.4 1.6-0.4 1.2-1.2 2.8-2 4-7.2 13.2-21.6 22.4-37.6 22.4h-565.6c-23.6 0-42.8-19.2-42.8-42.8v-798c0-22 16.8-40 38-42.8 1.6-0.4 3.2-0.4 5.2-0.4l565.6-0.4c23.6 0 42.8 19.2 42.8 42.8v798.4c0 1.6 0 3.2-0.4 4.8zM123.2 593.6l97.2 10.4c4-13.2 9.6-22.4 16.8-28.4 7.2-5.6 16.8-8.4 28.8-8.4 13.2 0 23.2 3.2 30.4 9.6 5.6 4.8 8.4 10.8 8.4 18 0 8-3.6 14.4-11.2 18.8-5.2 3.2-19.2 6.8-42 11.6-34 6.8-57.6 13.2-70.8 18.8s-24.4 15.6-33.6 29.2c-9.2 13.6-13.6 29.2-13.6 46.8 0 19.2 4.8 35.6 14.8 49.6 9.6 14 23.2 24.4 40.4 31.2s40 10.4 69.2 10.4c30.4 0 52.8-2.8 67.6-8 14.4-5.2 26.8-13.6 36.4-24.8s17.6-26.4 24-45.2l-92.8-10.4c-2.4 9.2-6.4 16-12 20.4-7.6 6-16.8 8.8-28 8.8s-19.2-2.4-24-6.8c-5.2-4.4-7.6-10-7.6-16.4 0-7.2 3.2-12.4 9.6-16s20.4-6.8 42-10c32.4-4.4 56.8-10 72.8-17.6s28-18 36.4-32c8.4-14 12.8-29.2 12.8-45.6 0-16.8-4.4-33.2-13.2-49.2s-22.8-28.4-42-38c-19.2-9.6-45.2-14-78.4-14-46.8 0-80 7.6-99.6 22.8-20.8 14.8-33.2 36.4-38.8 64.4zM640 221.2c0-12-9.6-21.6-21.6-21.6h-389.6c-12 0-21.6 9.6-21.6 21.6v21.6h0.4c0 12 9.6 21.6 21.6 21.6h389.2c12 0 21.6-9.6 21.6-21.6v-21.6zM640 356.8c0-12-9.6-21.6-21.6-21.6h-389.6c-12 0-21.6 9.6-21.6 21.6v21.6h0.4c0 12 9.6 21.6 21.6 21.6h389.2c12 0 21.6-9.6 21.6-21.6v-21.6zM664 548.8c-26-28.8-62-42.8-108-42.8-41.2 0-74.4 12-99.6 35.6-31.2 29.6-46.8 68-46.8 115.6 0 44.4 13.2 81.2 39.6 110s62 43.2 106.4 43.2c51.2 0 89.6-16.8 116-50.8 21.2-27.2 31.6-60.8 31.6-100.8-0.4-44.8-13.2-81.2-39.2-110zM556.8 733.6c-14.4 0-26-6.4-35.2-18.8s-14-31.6-14-57.2c0-26 4.8-45.2 14-57.6s20.8-18.8 34.8-18.8c14 0 25.6 6 34.8 18.4s13.6 32 13.6 58.8c0 25.2-4.4 44-13.6 56.4-9.6 12.8-20.8 18.8-34.4 18.8z" data-tags="sales-order" />
<glyph unicode="&#xe63f;" d="M891.6 755.6h-120.8v-672.4c0-23.6-19.2-42.8-42.8-42.8h-423.2v-57.2c0-23.6 19.2-42.8 42.8-42.8h544c23.6 0 42.8 19.2 42.8 42.8v729.6c0 23.6-19.2 42.8-42.8 42.8zM695.6 61.6c23.6 0 42.8 19.2 42.8 42.8v798c0 0 0 0.4 0 0.4 0 1.6 0 3.2-0.4 4.8 0 0.8 0 1.2-0.4 2 0 1.2-0.4 2-0.8 3.2 0 0.8-0.4 1.2-0.4 2-0.4 1.2-0.8 2-1.2 3.2 0 0.4-0.4 1.2-0.4 1.6-0.4 1.2-1.2 2.8-2 4-7.2 13.2-21.6 22.4-37.6 22.4h-565.6c-23.6 0-42.8-19.2-42.8-42.8v-798c0-22 16.8-40 38-42.8 0 0 0 0 0 0 1.6-0.4 3.2-0.4 5.2-0.4h565.6zM204 748.4c0 12 9.6 21.6 21.6 21.6h155.6c12 0 21.6-9.6 21.6-21.6v-2.8c0-12-9.6-21.6-21.6-21.6h-156c-12 0-21.6 9.6-21.6 21.6v2.8zM204 682.8c0 12 9.6 21.6 21.6 21.6h155.6c12 0 21.6-9.6 21.6-21.6v-2.8c0-12-9.6-21.6-21.6-21.6h-156c-12 0-21.6 9.6-21.6 21.6v2.8zM204 617.2c0 12 9.6 21.6 21.6 21.6h155.6c12 0 21.6-9.6 21.6-21.6v-2.8c0-12-9.6-21.6-21.6-21.6h-156c-12 0-21.6 9.6-21.6 21.6v2.8zM204 509.6c0 12 9.6 21.6 21.6 21.6h389.2c12 0 21.6-9.6 21.6-21.6v-21.6c0-12-9.6-21.6-21.6-21.6h-389.6c-12 0-21.6 9.6-21.6 21.6v21.6zM204 374.4c0 12 9.6 21.6 21.6 21.6h389.2c12 0 21.6-9.6 21.6-21.6v-21.6c0-12-9.6-21.6-21.6-21.6h-389.6c-12 0-21.6 9.6-21.6 21.6v21.6zM204 238.8c0 12 9.6 21.6 21.6 21.6h389.2c12 0 21.6-9.6 21.6-21.6v-21.6c0-12-9.6-21.6-21.6-21.6h-389.6c-12 0-21.6 9.6-21.6 21.6v21.6z" data-tags="service-contracts" />
<glyph unicode="&#xe640;" d="M512 950.8c-278.8 0-504.4-225.6-504.4-504.4s226-504.4 504.4-504.4c278.8 0 504.4 226 504.4 504.4 0 278.8-225.6 504.4-504.4 504.4zM854 623.6l5.2-32.4 10.4-7.2 2-16.4 31.2-50.4 7.2-14.4 14 14.4h15.6v-18l-12.4-30.8-28-21.6-19.2-28.8 7.2-26.8v-32.4l-26-26.8-1.6-32.4-8.8-5.6-7.2-16-34.8-34.4-38.4-3.6 2 30.8-15.6 10.8-7.2 41.6-10.4 20v26.8l14 7.2-3.6 26.8-19.2 34.4v10.8l1.6 16-3.6 7.2h-10.8l-15.6 12.4-54-10.8-48.8 50.4-1.6 56 34.8 43.2 5.2 16.4 17.2 25.2 24.4 2 24.8 8.8 37.6-4.4 2.4-18 15.6-0.8 3.6-7.2 17.6-8.8 1.6 10.8h12.4l22.4-5.2 34.8-2.4 2 18-17.2 3.6 3.2 14.4-8.8-8.8-22.8 28.8-1.6-7.2v-20h15.6v-12.8l-14-2-17.2 25.2-14 32.4-28 12.4 14-10.8 14-16.4v-12.4l-14-16.4-15.2 10.8 12.8 6-0.8 7.2-17.6 23.6-1.6-27.2-14-1.6 3.6 27.2-17.2 1.6-22.8-21.6v-20.8l-48.8 1.2 3.6 46.8 24.4-2 12 3.6v8.8l7.2 8.8-12.4 2-3.6 12.8 12 7.2-24.4 2 12.4 26.8-8.8 21.6 17.6 14.4c0 0 0-4.8 0.8-10.4 0.4-1.2 0.4-2.8 0.8-4 1.6-7.2 12-26.8 12-26.8l-6.8-9.2 14-7.2 22.8 18v16l12 10.8 3.2-20.4 0.4-1.6h2.4l28.8 1.6 8.8 12 1.2 1.6c33.6-25.2 64-54.8 89.6-88 13.2-17.2 25.2-35.2 36-54.4 21.6-38.4 38-80.4 48-124.8l-10.8-5.6-17.6-9.2h-8.8l-17.6 16-5.2 14.4-17.6 8.8 3.6 12.4-27.6 46.4zM428.4 754v-12l-10.4-4.8-25.6 9.6v7.2l11.6 8.4 4.8 3.6 8.4-1.2 11.2-10.8zM389.6 874.8l0.4-1.6-6-18-9.2-4.8-11.6 8.4-8 4.4-7.2 4-3.2 0.4c14 5.2 28 9.6 42.8 13.6v0 0c5.2 1.6 10.8 3.2 16 4.4v-9.2l-16 4.8 2-6.4zM261.6 824.4l7.2-6.8 17.2-16 7.2-18h10.4l1.6 14.4 10.4 16 4.4 32.8 1.2 8.8 15.6-0.8 17.2-0.8 7.2-27.2 22.8 16.4 10.4-14.4-3.6-12.8 2-2 22.4-24.8-2-12.8-31.2-14.4h-22.8l-6.8-10.8h8.8l12.4-14.4 31.2-10.8-20.8-5.2-14-10.8-6.8 8.8 1.6 7.2h-17.2l-12.8-14-3.6-12.8-17.6 3.6-1.2-26.8-7.2 3.6v-23.6h-19.2l-10.4-16-1.6-38-10.4 5.2-3.6 25.6h-27.6l-2-7.2-20.8 2-17.6-11.2-3.6-39.6 22.4-14.4 17.6 20 15.6-2-5.2-20 5.2-12.4 13.6 7.2 12.4-5.2-12.4-20 26-25.2 20.8 23.2 19.2-7.2 29.6-3.6 19.2-14.4-5.2-12.8 31.6-2 24.4-25.2-1.6-10.8 28-12.8 17.6-1.6 33.2-20-1.6-16-10.4-23.2-10.4-2v-30.8l-15.6-32.4-24.4-8.8c0 0-6.8-18-6.8-23.6 0-5.2-29.6-39.6-29.6-39.6h-15.6l5.2-14.4-7.2-16h-12l-7.2-7.2h-8.8l2-10.8-7.2-19.6h-7.2l7.2-14.4-8.8-21.6 3.6-16 17.6-12.4h-33.2l-19.2 21.6-10.4 39.6v8.8h8.8l3.6 18-8.8 5.6 1.6 32.4 7.2 7.2v36l1.6 12.8 1.6 55.6-34.8 27.2-14 37.6-5.2 7.2-3.6 14.4h8.8l-5.2 12.4 3.6 18 10.4 7.2-3.6 19.6-33.2 18-3.6 30.8-19.2 8.8-15.6-3.6-22.4 10.8-30 24-1.6 1.2-15.6 34v-23.2l-10.4 5.2-16 21.2-1.6 2.8-1.2 26c36.4 72.8 92 134.4 159.6 178.4zM286.8 566.8l-11.6 10.8-23.2 5.6 4.8 6 22 2.4 25.6-14.4 27.6-6v-14.4l-19.6-9.6-14 3.6 6.8 13.2-18.4 2.8zM694.8 682.4l8.4 10.8 5.2-4.4 0.4-8-14 1.6zM708.8 699.2l2.8 2.4h9.2v-6l-2.4-2.8h-6.8l-2.8 6.4zM773.2 812l-8-12-17.6-1.6 1.6 8.8-5.2 21.6-22.4-10.8-1.2 25.6v2.8c18.8-9.6 36.8-20.8 54-32.8l-1.2-1.6z" data-tags="services" />
<glyph unicode="&#xe641;" d="M522.8 944c-269.6 2.8-500-220-505.2-489.2-4.8-268.4 218.4-503.2 485.2-509.2 270.4-6 501.6 211.2 512.8 481.6 11.2 273.2-218 513.6-492.8 516.8zM526.4 39.6c-226.4-3.6-407.6 169.2-414.8 395.2-6.8 219.6 176.4 411.6 396 415.2 224.4 4 410.8-174 414.8-395.6 3.6-222.4-176.8-411.2-396-414.8zM498 132c-23.6 2.8-71.2 12-111.6 32.8-51.2 26.4-146.4 68.8-105.6 123.6 48.8 65.6 90-17.2 134-35.6 100.8-42 180.8-26.8 257.6 41.2 26.8 23.6 52.8 33.6 80.4 4 34-36.4-2.8-55.6-22.4-74.8-58-56.4-128-104-232.4-91.2zM390.8 630c0-33.8-27.4-61.2-61.2-61.2s-61.2 27.4-61.2 61.2c0 33.8 27.4 61.2 61.2 61.2s61.2-27.4 61.2-61.2zM766 630c0-33.8-27.4-61.2-61.2-61.2s-61.2 27.4-61.2 61.2c0 33.8 27.4 61.2 61.2 61.2s61.2-27.4 61.2-61.2z" data-tags="smiley1" />
<glyph unicode="&#xe642;" d="M522.8 944c-269.6 2.8-500-220-505.2-489.2-4.8-268.4 218.4-503.2 485.2-509.2 270.4-6 501.6 211.2 512.8 481.6 11.2 273.2-218 513.6-492.8 516.8zM526.4 39.6c-226.4-3.6-407.6 169.2-414.8 395.2-6.8 219.6 176.4 411.6 396 415.2 224.4 4 410.8-174 414.8-395.6 3.6-222.4-176.8-411.2-396-414.8zM539.6 322c23.6-2.8 71.2-12 111.6-32.8 51.2-26.4 146.4-68.8 105.6-123.6-48.8-65.6-90 17.2-134 35.6-100.8 42-180.8 26.8-257.6-41.2-26.8-23.6-52.8-33.6-80.4-4-34 36.4 2.8 55.6 22.4 74.8 57.6 56.4 128 104 232.4 91.2zM390.8 630c0-33.8-27.4-61.2-61.2-61.2s-61.2 27.4-61.2 61.2c0 33.8 27.4 61.2 61.2 61.2s61.2-27.4 61.2-61.2zM766 630c0-33.8-27.4-61.2-61.2-61.2s-61.2 27.4-61.2 61.2c0 33.8 27.4 61.2 61.2 61.2s61.2-27.4 61.2-61.2z" data-tags="smiley2" />
<glyph unicode="&#xe643;" d="M522.8 944c-269.6 2.8-500-220-505.2-489.2-4.8-268.4 218.4-503.2 485.2-509.2 270.4-6 501.6 211.2 512.8 481.6 11.2 273.2-218 513.6-492.8 516.8zM526.4 39.6c-226.4-3.6-407.6 169.2-414.8 395.2-6.8 219.6 176.4 411.6 396 415.2 224.4 4 410.8-174 414.8-395.6 3.6-222.4-176.8-411.2-396-414.8zM390.8 630c0-33.8-27.4-61.2-61.2-61.2s-61.2 27.4-61.2 61.2c0 33.8 27.4 61.2 61.2 61.2s61.2-27.4 61.2-61.2zM766 630c0-33.8-27.4-61.2-61.2-61.2s-61.2 27.4-61.2 61.2c0 33.8 27.4 61.2 61.2 61.2s61.2-27.4 61.2-61.2zM722.4 241.2h-407.6c-24.4 0-44 20-44 44v13.2c0 24 19.6 44 44 44h407.6c24.4 0 44-20 44-44v-13.2c0-24-19.6-44-44-44z" data-tags="smiley3" />
<glyph unicode="&#xe644;" d="M513.2 695.164l87.712-177.468 196.016-28.736-142.004-138.408 33.536-194.828-175.296 92.264-175.036-92.264 33.288 194.884-141.94 138.352 196.020 28.736 87.704 177.468zM513.2 920.864l-154.116-311.836-344.284-50.472 249.2-242.892-58.584-342.928 307.784 162.224 308.236-162.228-59.036 342.932 249.204 242.892-344.284 50.472-154.12 311.836z" data-tags="star-empty" />
<glyph unicode="&#xe645;" d="M513.184 934.248l155.944-315.764 348.072-50.404-252.008-245.544 59.444-346.784-311.452 163.7-311.456-163.7 59.448 346.784-251.576 245.544 348.072 50.404z" data-tags="star-full" />
<glyph unicode="&#xe646;" d="M1011.6 558.556l-344.28 50.472-154.12 311.836-154.116-311.836-344.284-50.472 249.2-242.892-58.584-342.928 307.784 162.224 308.24-162.228-59.040 342.928 249.2 242.896zM663.848 298.7l24.612-142.972-175.26 92.244v447.188l87.716-177.464 196.016-28.736-142.008-138.408 8.924-51.852z" data-tags="star-half" />
<glyph unicode="&#xe647;" d="M997.2 489.2l-0.8 365.2-364 0.8-510-441.2 364.8-395.6 510 470.8zM742.8 620.4c-24 26-22.4 66.8 3.6 90.8 5.6 5.2 12.4 9.2 19.2 12 24 10 52.8 4.4 71.6-16 24-26 22.4-66.8-3.6-90.8-18.8-17.6-45.6-21.2-68-12-8.4 3.6-16.4 8.8-22.8 16z" data-tags="tag" />
<glyph unicode="&#xe648;" d="M578.8 855.2h-48.8l-510-441.2 365.2-395.6 26.4 24.4-342.8 371.2zM997.2 489.2l-0.8 365.2-364 0.8-510-441.2 364.8-395.6 510 470.8zM742.8 620.4c-24 26-22.4 66.8 3.6 90.8 5.6 5.2 12.4 9.2 19.2 12 24 10 52.8 4.4 71.6-16 24-26 22.4-66.8-3.6-90.8-18.8-17.6-45.6-21.2-68-12-8.4 3.6-16.4 8.8-22.8 16z" data-tags="tag2" />
<glyph unicode="&#xe649;" d="M549.332 357.528c-1.364 98.624-56.148 160.256-178.052 202.716-84.924 31.496-116.42 50.676-116.42 93.136 0 41.088 32.868 71.224 93.132 71.224 58.9 0 113.684-21.916 141.076-38.352l34.244 117.792c-35.428 19.544-90.512 35.732-154.464 39.028v95.98h-112.936v-106.872c-101.8-27.792-162.672-103.544-162.672-196.604 0-79.44 53.42-150.66 183.532-194.492 82.176-30.12 109.576-52.048 109.576-97.244 0-43.828-32.876-75.336-106.84-75.336-60.256 0-132.848 26.032-169.832 49.316l-34.248-123.272c44.72-24.856 108.688-42.772 180.48-45.92v-95.428h112.936v103.692c118.124 25.196 180.488 101.628 180.488 200.636zM899.448 800.516h-329.44l-5.192-18.408-6.148-21.992h339.396v-152.948h-486.98c45.564-15.84 113.376-42.888 130.928-68.752 0 0 74.108-68.404 65.56-218.036 0 0 2.848-156.752-145.36-193.804v-102.604h-204.58v-32.756c0-25.24 20.652-45.888 45.888-45.888h595.928c25.24 0 45.884 20.648 45.884 45.888v763.416c0 25.236-20.644 45.884-45.884 45.884zM608.508 23.196h-116.104v100.108h116.104v-100.108zM633.416 516.796h116.104v-100.108h-116.104v100.108zM634.8 385.632h116.108v-100.108h-116.108v100.108zM757.048 23.196h-116.104v100.108h116.104v-100.108zM757.048 154.36h-116.104v100.108h116.104v-100.108zM781.948 516.796h116.108v-100.108h-116.108v100.108zM783.344 385.632h116.104v-100.108h-116.104v100.108zM905.588 23.196h-116.104v100.108h116.104v-100.108zM905.588 154.36h-116.104v100.108h116.104v-100.108zM335.584 649.58c0 0 0.008-1.884 0.744-4.668v6.328c-0.24-0.564-0.54-1.052-0.744-1.66z" data-tags="taxes" />
<glyph unicode="&#xe64a;" d="M988.8 140l-413.2 707.6c-34.4 34.4-90.4 34.4-124.8 0l-413.2-707.6c-34.4-34.4-34.4-90.4 0-124.8h951.2c34.4 34.4 34.4 90.4 0 124.8zM475.2 593.6c0 27.2 22 49.6 49.6 49.6s49.6-22 49.6-49.6v-231.2c0-27.2-22-49.6-49.6-49.6s-49.6 22-49.6 49.6v231.2zM524.8 147.6c-27.2 0-49.6 22-49.6 49.6 0 27.2 22 49.6 49.6 49.6 27.2 0 49.6-22 49.6-49.6 0-27.2-22-49.6-49.6-49.6z" data-tags="tickets" />
<glyph unicode="&#xe64b;" d="M7.2 810.8h1008.8v-145.6h-1008.8v145.6zM7.2 516h1008.8v-145.6h-1008.8v145.6zM7.2 221.2h1008.8v-145.6h-1008.8v145.6z" data-tags="toggle" />
<glyph unicode="&#xe64c;" d="M825.6 572.4h-146.8v105.6c0 15.2-12.8 28-28 28h-613.2c-15.2 0-28-12.8-28-28v-481.2c0-15.6 12.8-28 28-28h63.6c8.4 70 68 124.4 140.4 124.4s132-54.4 140.4-124.4h280.396c8.404 70 68 124.4 140.404 124.4 72.4 0 132-54.4 140.4-124.4h69.2v177.2l-186.8 226.4zM718.4 382v122.4h84.4l102.4-122.4h-186.8zM346 147.6c0-57.659-46.741-104.4-104.4-104.4s-104.4 46.741-104.4 104.4c0 57.659 46.741 104.4 104.4 104.4s104.4-46.741 104.4-104.4zM912 147.6c0-57.659-46.741-104.4-104.4-104.4s-104.4 46.741-104.4 104.4c0 57.659 46.741 104.4 104.4 104.4s104.4-46.741 104.4-104.4zM778 796c-4 24-24 26-24 26h-720.228c-13.348 0-24.172-10.748-24.172-24v-421.332c0-13.252 10.824-24 24.172-24h620.856c13.348 0 24.172 10.748 24.172 24v233.332c-0.052 17.668 5.276 19.252 27.612 19.832 13.74 0.356 29.388 0.168 29.388 0.168h83.8c0 0-37.6 142-41.6 166z" data-tags="vendors" />
<glyph unicode="&#xe64d;" d="M504.816 956v-1008.18h-46.804l-283.692 288.164h-165.248v444.872h156.7l286.132 275.144z" data-tags="volume-off" />
<glyph unicode="&#xe64e;" d="M504.816 956v-1008.18h-46.804l-283.692 288.164h-165.248v444.872h156.7l286.132 275.144zM633.436 168.020c100.128 102.972 146.528 209.608 137.576 316.656-12.212 147.748-126.992 241.768-148.564 258.048-0.408 0.408-0.816 1.224-1.224 1.632-15.060 11.396-30.928 15.872-59.42-8.956-33.38-29.304-17.096-59.832-2.036-72.856 0.812-0.816 100.532-74.888 109.896-186.412 6.512-78.556-32.564-161.18-116-244.616v0c-10.584-15.064-14.248-30.932 10.176-58.608 23.2-26.456 45.584-25.64 61.456-13.028v0c0.412 0.408 0.816 0.816 0.816 1.224 2.844 1.62 5.284 4.064 7.324 6.916zM837.348 99.64c124.14 127.796 181.532 259.676 170.54 392.36-15.060 183.564-157.512 299.564-183.968 319.916-0.408 0.816-1.224 1.224-1.628 1.628-18.724 13.836-38.668 19.536-73.664-10.992-41.524-36.224-21.168-74.076-2.444-90.356 1.22-0.812 124.548-92.8 135.94-230.78 8.14-97.684-40.296-199.436-144.084-303.228v0c-13.028-18.724-17.912-38.668 12.616-72.444 28.9-32.564 56.58-31.752 76.108-16.284v0c0.408 0.412 0.812 0.816 1.228 1.224 3.66 2.44 6.508 5.7 9.356 8.956z" data-tags="volume-on" />
</font>
</defs>
</svg>
